<svg xmlns="http://www.w3.org/2000/svg">
<defs>
<font id="DBAdmanX" horiz-adv-x="0" >
  <font-face 
    font-family="DB Adman X"
    font-weight="400"
    font-stretch="normal"
    units-per-em="4096"
    panose-1="2 0 5 6 9 0 0 2 0 4"
    ascent="3276"
    descent="-820"
    x-height="1495"
    cap-height="2163"
    bbox="-1794 -1466 3912 3391"
    underline-thickness="82"
    underline-position="-463"
    unicode-range="U+0020-U+F882"
  />
<missing-glyph horiz-adv-x="1696" 
d="M1729 1638v-57h24q29 0 29 37q0 3 -6.5 11.5t-22.5 8.5h-24zM1741 1577h-12v-57h-21v139h45q49 0 49 -41q0 -28 -12.5 -34.5t-28.5 -6.5l41 -57h-20zM1753 1499q26 0 43.5 8t28 20.5t14.5 27t4 26.5q0 46 -21.5 72t-68.5 26q-46 0 -70 -26t-24 -72q0 -34 22.5 -58
t71.5 -24zM1753 1692q53 0 77.5 -32.5t24.5 -78.5q0 -17 -6 -33.5t-18.5 -30t-32 -22t-45.5 -8.5q-24 0 -44 8.5t-33.5 22t-21 30t-7.5 33.5q0 46 28.5 78.5t77.5 32.5zM823 1294q43 -3 98 -9t114 -15t118.5 -20.5t112 -25.5t94 -30t65.5 -35q-41 81 -107 144.5t-146.5 107
t-171 66t-181.5 22.5q-69 0 -136 -13t-128.5 -40t-115 -68t-95.5 -96q74 9 147.5 12.5t147.5 3.5q46 0 92 -0.5t92 -3.5zM1536 1618v-582q-98 31 -211.5 58t-238.5 47t-259 31.5t-274 11.5q-99 0 -194 -6t-191 -19q24 92 78 175.5t135.5 146.5t189.5 100t240 37
q127 0 229.5 -28.5t179 -70.5t128 -89.5t77.5 -86.5q0 -3 -0.5 11t-0.5 38t-1 55t-1 62.5t-0.5 60t-0.5 48.5h115zM627 520q0 34 -22.5 50t-47.5 16q-28 0 -49 -16t-21 -50t21 -47.5t49 -13.5q12 0 24.5 3t22.5 10.5t16.5 19t6.5 28.5zM131 569q0 95 37.5 168t98.5 122
t139 74t159 25t157.5 -22t135 -67.5t94 -115.5t35.5 -167v-475h434v827h115v-934h-774v107h119v487q0 61 -24 107.5t-66 77t-99 46t-123 15.5q-61 0 -118.5 -17.5t-102 -50.5t-71.5 -81t-27 -109v-439l237 238q-11 4 -25.5 14.5t-28 27t-23 39.5t-9.5 54q0 74 45 117t119 43
q35 0 64 -13t49.5 -35t31.5 -51t11 -61q0 -29 -6.5 -51t-16.5 -38t-20.5 -27l-18.5 -19l-23.5 -22.5l-46.5 -44.5l-62.5 -60.5l-71.5 -69.5l-92 -85.5l-101 -98.5h-131v565z" />
    <glyph glyph-name="ellipsis" unicode="&#x2e;&#x2e;&#x2e;" horiz-adv-x="1921" 
d="M1798 184q0 -43 -16 -79.5t-43 -63.5t-63.5 -42t-78.5 -15q-41 0 -77.5 15t-63.5 41.5t-43 62.5t-16 77q0 43 16 80t43 64t63.5 42t77.5 15q42 0 78.5 -15t63.5 -41.5t43 -62.5t16 -78zM1159 184q0 -43 -16 -79.5t-43 -63.5t-63.5 -42t-78.5 -15q-41 0 -77.5 15
t-63.5 41.5t-43 62.5t-16 77q0 43 16 80t43 64t63.5 42t77.5 15q42 0 78 -15t62.5 -41.5t41.5 -62.5t15 -78h4zM520 184q0 -43 -16 -79.5t-43 -63.5t-63.5 -42t-78.5 -15q-41 0 -77.5 15t-63.5 41.5t-43 62.5t-16 77q0 43 16 80t43 64t63.5 42t77.5 15q42 0 78 -15
t62.5 -41.5t41.5 -62.5t15 -78h4z" />
    <glyph glyph-name="dochadaphinthuthai" unicode="&#xe0e;&#xe3a;" horiz-adv-x="1905" 
d="M1319 -750q-72 54 -140 93t-134 63.5t-132 36.5t-135 12q-68 0 -133 -11t-130.5 -36t-133 -64t-139.5 -94l-172 205q92 67 179.5 116.5t174 82t174.5 48t180 15.5q140 0 265 -31t243 -96l197 193v1278q0 123 -44 223.5t-122 172t-186.5 110.5t-237.5 39
q-68 0 -133.5 -17.5t-126.5 -48.5t-114.5 -73t-96.5 -91l127 -135v-1241h-451v266h176v885l-188 205q66 117 152.5 211.5t189.5 161t220 103t245 36.5q190 0 349 -60t273.5 -167t178 -255t63.5 -325v-1385zM1778 -975q0 -37 -14.5 -69.5t-39.5 -57t-58.5 -39t-72.5 -14.5
q-38 0 -71.5 14.5t-58.5 39t-39.5 57t-14.5 69.5t14.5 69.5t39.5 57t58.5 39t71.5 14.5q39 0 72.5 -14.5t58.5 -39t39.5 -57t14.5 -69.5z" />
    <glyph glyph-name="topatakphintuthai" unicode="&#xe0f;&#xe3a;" horiz-adv-x="1905" 
d="M1311 -758l-295 287l-291 -287l-496 479l193 189l303 -291l295 283l295 -287l168 164v1282q0 120 -44 219.5t-122 171t-186.5 111t-237.5 39.5q-68 0 -133.5 -17t-126 -47.5t-113 -72.5t-94.5 -93l123 -131v-1241h-451v266h176v881l-188 209q66 115 153.5 209.5
t191.5 161.5t220.5 104t241.5 37q127 0 240.5 -27.5t209.5 -78t172.5 -123t130.5 -163t82.5 -196t28.5 -223.5v-1381zM1778 -975q0 -37 -14.5 -69.5t-39.5 -57t-58.5 -39t-72.5 -14.5q-38 0 -71.5 14.5t-58.5 39t-39.5 57t-14.5 69.5t14.5 69.5t39.5 57t58.5 39t71.5 14.5
q39 0 72.5 -14.5t58.5 -39t39.5 -57t14.5 -69.5z" />
    <glyph glyph-name="dochadasarauthai" unicode="&#xe0e;&#xe38;" horiz-adv-x="1905" 
d="M1319 -750q-72 54 -140 93t-134 63.5t-132 36.5t-135 12q-68 0 -133 -11t-130.5 -36t-133 -64t-139.5 -94l-172 205q92 67 179.5 116.5t174 82t174.5 48t180 15.5q140 0 265 -31t243 -96l197 193v1278q0 123 -44 223.5t-122 172t-186.5 110.5t-237.5 39
q-68 0 -133.5 -17.5t-126.5 -48.5t-114.5 -73t-96.5 -91l127 -135v-1241h-451v266h176v885l-188 205q66 117 152.5 211.5t189.5 161t220 103t245 36.5q190 0 349 -60t273.5 -167t178 -255t63.5 -325v-1385zM1503 -1401v328h-164v258h279q31 0 57 -11t45 -30t30 -45.5
t11 -56.5v-443h-258z" />
    <glyph glyph-name="topataksarauthai" unicode="&#xe0f;&#xe38;" horiz-adv-x="1905" 
d="M1311 -758l-295 287l-291 -287l-496 479l193 189l303 -291l295 283l295 -287l168 164v1282q0 120 -44 219.5t-122 171t-186.5 111t-237.5 39.5q-68 0 -133.5 -17t-126 -47.5t-113 -72.5t-94.5 -93l123 -131v-1241h-451v266h176v881l-188 209q66 115 153.5 209.5
t191.5 161.5t220.5 104t241.5 37q127 0 240.5 -27.5t209.5 -78t172.5 -123t130.5 -163t82.5 -196t28.5 -223.5v-1381zM1503 -1401v328h-164v258h279q31 0 57 -11t45 -30t30 -45.5t11 -56.5v-443h-258z" />
    <glyph glyph-name="fongmanfunnuthai" unicode="&#xe4f;&#x22;" horiz-adv-x="2171" 
d="M1368 1896h-172l-37 611h246zM967 1896h-164l-37 611h242zM1987 868q0 -123 -32.5 -237.5t-92 -214.5t-142 -182.5t-183 -142t-215 -92t-237.5 -32.5t-237.5 32.5t-214.5 92t-182.5 142t-142 182.5t-92 214.5t-32.5 237.5t32.5 237.5t92 214.5t142 183t182.5 142
t214.5 91.5t237.5 32.5t237.5 -32.5t215 -91.5t183 -142t142 -183t92 -214.5t32.5 -237.5zM1569 868q0 -98 -38.5 -186t-104.5 -154t-154 -104.5t-187 -38.5q-98 0 -186 38.5t-154 104.5t-104.5 154t-38.5 186t38.5 186t104.5 154t154 105t186 39q66 0 127.5 -17.5
t115 -49.5t98 -76.5t76.5 -98.5t49.5 -115.5t17.5 -126.5zM1343 868q0 54 -20 101t-55 82t-82 55t-101 20t-101 -20t-82 -55t-55 -82t-20 -101t20 -101t55 -82t82 -55t101 -20t101 20t82 55t55 82t20 101zM1753 864q0 92 -24 178t-67.5 160.5t-104.5 136t-135 105.5
t-159.5 68t-177.5 24t-177 -24t-159.5 -67.5t-135 -104.5t-104 -135t-67.5 -159.5t-24 -177.5q0 -138 52.5 -259.5t143 -212t212 -143t259.5 -52.5q93 0 179 24t160 67t135 104t104 134.5t66.5 158t23.5 175.5z" />
    <glyph glyph-name="lessequal" unicode="&#x3c;&#x3d;" horiz-adv-x="1602" 
d="M94 1208v238l1413 700v-278l-1069 -541l1069 -577v-275zM1507 217v-274l-1413 733v303z" />
    <glyph glyph-name="greaterequal" unicode="&#x3e;&#x3d;" horiz-adv-x="1602" 
d="M94 475v275l1069 577l-1069 541v278l1413 -700v-238zM1507 979v-303l-1413 -733v274z" />
    <glyph glyph-name="plusminus" unicode="&#x2b;&#x2d;" horiz-adv-x="1597" 
d="M930 950v-594h-258v594h-598v258h594v598h258v-598h598v-258h-594zM74 0v258h1450v-258h-1450z" />
    <glyph glyph-name="dochadasarauuthai" unicode="&#xe0e;&#xe39;" horiz-adv-x="1905" 
d="M1319 -750q-72 54 -140 93t-134 63.5t-132 36.5t-135 12q-68 0 -133 -11t-130.5 -36t-133 -64t-139.5 -94l-172 205q92 67 179.5 116.5t174 82t174.5 48t180 15.5q140 0 265 -31t243 -96l197 193v1278q0 123 -44 223.5t-122 172t-186.5 110.5t-237.5 39
q-68 0 -133.5 -17.5t-126.5 -48.5t-114.5 -73t-96.5 -91l127 -135v-1241h-451v266h176v885l-188 205q66 117 152.5 211.5t189.5 161t220 103t245 36.5q190 0 349 -60t273.5 -167t178 -255t63.5 -325v-1385zM1757 -1102q0 -74 -28 -138.5t-76 -113t-112 -76.5t-136 -28
q-74 0 -139 28t-113 76t-76 112t-28 136v29h-164v258h422v-283q0 -40 23.5 -69t70.5 -29q46 0 72 29t26 69v283h258v-283z" />
    <glyph glyph-name="topataksarauuthai" unicode="&#xe0f;&#xe39;" horiz-adv-x="1905" 
d="M1311 -758l-295 287l-291 -287l-496 479l193 189l303 -291l295 283l295 -287l168 164v1282q0 120 -44 219.5t-122 171t-186.5 111t-237.5 39.5q-68 0 -133.5 -17t-126 -47.5t-113 -72.5t-94.5 -93l123 -131v-1241h-451v266h176v881l-188 209q66 115 153.5 209.5
t191.5 161.5t220.5 104t241.5 37q127 0 240.5 -27.5t209.5 -78t172.5 -123t130.5 -163t82.5 -196t28.5 -223.5v-1381zM1757 -1110q0 -74 -28 -139t-76 -113t-112 -76t-136 -28q-74 0 -139 28t-113 76t-76 112t-28 136v29h-164v258h422v-283q0 -40 23.5 -69t70.5 -29
q46 0 72 29t26 69v283h258v-283z" />
    <glyph glyph-name=".notdef" horiz-adv-x="1696" 
d="M1729 1638v-57h24q29 0 29 37q0 3 -6.5 11.5t-22.5 8.5h-24zM1741 1577h-12v-57h-21v139h45q49 0 49 -41q0 -28 -12.5 -34.5t-28.5 -6.5l41 -57h-20zM1753 1499q26 0 43.5 8t28 20.5t14.5 27t4 26.5q0 46 -21.5 72t-68.5 26q-46 0 -70 -26t-24 -72q0 -34 22.5 -58
t71.5 -24zM1753 1692q53 0 77.5 -32.5t24.5 -78.5q0 -17 -6 -33.5t-18.5 -30t-32 -22t-45.5 -8.5q-24 0 -44 8.5t-33.5 22t-21 30t-7.5 33.5q0 46 28.5 78.5t77.5 32.5zM823 1294q43 -3 98 -9t114 -15t118.5 -20.5t112 -25.5t94 -30t65.5 -35q-41 81 -107 144.5t-146.5 107
t-171 66t-181.5 22.5q-69 0 -136 -13t-128.5 -40t-115 -68t-95.5 -96q74 9 147.5 12.5t147.5 3.5q46 0 92 -0.5t92 -3.5zM1536 1618v-582q-98 31 -211.5 58t-238.5 47t-259 31.5t-274 11.5q-99 0 -194 -6t-191 -19q24 92 78 175.5t135.5 146.5t189.5 100t240 37
q127 0 229.5 -28.5t179 -70.5t128 -89.5t77.5 -86.5q0 -3 -0.5 11t-0.5 38t-1 55t-1 62.5t-0.5 60t-0.5 48.5h115zM627 520q0 34 -22.5 50t-47.5 16q-28 0 -49 -16t-21 -50t21 -47.5t49 -13.5q12 0 24.5 3t22.5 10.5t16.5 19t6.5 28.5zM131 569q0 95 37.5 168t98.5 122
t139 74t159 25t157.5 -22t135 -67.5t94 -115.5t35.5 -167v-475h434v827h115v-934h-774v107h119v487q0 61 -24 107.5t-66 77t-99 46t-123 15.5q-61 0 -118.5 -17.5t-102 -50.5t-71.5 -81t-27 -109v-439l237 238q-11 4 -25.5 14.5t-28 27t-23 39.5t-9.5 54q0 74 45 117t119 43
q35 0 64 -13t49.5 -35t31.5 -51t11 -61q0 -29 -6.5 -51t-16.5 -38t-20.5 -27l-18.5 -19l-23.5 -22.5l-46.5 -44.5l-62.5 -60.5l-71.5 -69.5l-92 -85.5l-101 -98.5h-131v565z" />
    <glyph glyph-name=".null" 
 />
    <glyph glyph-name="nonmarkingreturn" horiz-adv-x="1159" 
 />
    <glyph glyph-name="space" unicode=" " horiz-adv-x="1024" 
 />
    <glyph glyph-name="yoyingnobasethai" unicode="&#xf70f;" horiz-adv-x="3052" 
d="M2888 643q0 -93 -25 -179t-71.5 -161t-111 -136t-143 -104.5t-169.5 -67.5t-189 -24t-189 24t-169.5 67.5t-143 104.5t-111 136t-71.5 161t-25 179v418q0 123 -44 223t-123.5 170.5t-190 109t-244.5 38.5q-69 0 -136.5 -17t-129 -47t-116 -71.5t-97.5 -90.5l123 -135
v-979h274v-262h-548v1151l-193 205q67 117 156 211.5t194 161t224.5 103t248.5 36.5q193 0 354.5 -60t277.5 -167t180.5 -255t64.5 -325v-418q0 -81 34.5 -154.5t93.5 -129t138 -88.5t168 -33q91 0 169.5 29t136.5 82.5t91 128t33 165.5v1204l279 -4v-1200z" />
    <glyph glyph-name="quoteleft" unicode="&#x2018;" horiz-adv-x="770" 
d="M578 2327q-42 -26 -74.5 -51t-59.5 -52.5t-51 -60t-49 -74.5q54 -5 94 -20t66.5 -39t39.5 -55t13 -66q0 -37 -14.5 -71t-40 -60.5t-61 -42t-76.5 -15.5q-56 0 -97 21.5t-68 56t-40 78t-13 86.5q0 54 20.5 112.5t62 119.5t104.5 121.5t149 117.5z" />
    <glyph glyph-name="quoteright" unicode="&#x2019;" horiz-adv-x="770" 
d="M565 2179q0 -54 -20 -112.5t-61.5 -119.5t-105 -121.5t-149.5 -117.5l-98 107q42 24 74.5 49t60 53t52.5 61t51 74q-54 4 -94.5 19.5t-68 39.5t-41 55t-13.5 66q0 37 14.5 71t40 60.5t60.5 42t77 15.5q55 0 96.5 -21.5t69.5 -56t41.5 -78t13.5 -86.5z" />
    <glyph glyph-name="quotedblleft" unicode="&#x201c;" horiz-adv-x="1262" 
d="M1130 2327q-41 -26 -73.5 -51t-59.5 -52.5t-51 -60t-49 -74.5q54 -5 94 -20t66.5 -39t39.5 -55t13 -66q0 -37 -14.5 -71t-40 -60.5t-61 -42t-76.5 -15.5q-56 0 -97 21.5t-68 56t-40 78t-13 86.5q0 54 20.5 112.5t62 119.5t104.5 121.5t149 117.5zM578 2327
q-42 -26 -74.5 -51t-59.5 -52.5t-51 -60t-49 -74.5q54 -5 94 -20t66.5 -39t39.5 -55t13 -66q0 -37 -14.5 -71t-40 -60.5t-61 -42t-76.5 -15.5q-56 0 -97 21.5t-68 56t-40 78t-13 86.5q0 54 20.5 112.5t62 119.5t104.5 121.5t149 117.5z" />
    <glyph glyph-name="quotedblright" unicode="&#x201d;" horiz-adv-x="1290" 
d="M1110 2179q0 -54 -20 -112.5t-61.5 -119.5t-105 -121.5t-149.5 -117.5l-94 107q38 24 69 49t59 53t54.5 61t55.5 74q-54 4 -95 19.5t-68 39.5t-41 55t-14 66q0 37 14.5 71t40.5 60.5t61 42t77 15.5q55 0 96 -21.5t68 -56t40 -78t13 -86.5zM557 2179q0 -54 -20 -112.5
t-61.5 -119.5t-105 -121.5t-149.5 -117.5l-94 107q38 24 69 49t59 53t54.5 61t55.5 74q-54 4 -95 19.5t-68 39.5t-41 55t-14 66q0 37 14.5 71t40.5 60.5t61 42t77 15.5q55 0 96 -21.5t68 -56t40 -78t13 -86.5z" />
    <glyph glyph-name="bullet" unicode="&#x2022;" horiz-adv-x="1561" 
d="M1507 819q0 -101 -26 -194.5t-73 -174.5t-113.5 -147.5t-147.5 -113.5t-174.5 -73t-194.5 -26t-194.5 26t-174.5 73t-147.5 113.5t-113.5 147.5t-73 174.5t-26 194.5t26 194.5t73 174.5t113.5 147.5t147.5 113.5t174.5 73t194.5 26t194.5 -26t174.5 -73t147.5 -113.5
t113.5 -147.5t73 -174.5t26 -194.5z" />
    <glyph glyph-name="endash" unicode="&#x2013;" horiz-adv-x="1556" 
d="M61 594v246h1434v-246h-1434z" />
    <glyph glyph-name="emdash" unicode="&#x2014;" horiz-adv-x="3113" 
d="M61 594v246h2991v-246h-2991z" />
    <glyph glyph-name="uni00A0" unicode="&#xa0;" horiz-adv-x="1024" 
 />
    <glyph glyph-name="kokaithai" unicode="&#xe01;" horiz-adv-x="1884" 
d="M1720 0h-274v1061q0 123 -44 223.5t-122 172t-186.5 110.5t-237.5 39q-68 0 -133.5 -17.5t-126 -48.5t-113 -73t-94.5 -91l123 -135v-1241h-274v1151l-189 205q66 117 153.5 211.5t191.5 161t220.5 103t241.5 36.5q190 0 349 -60t273.5 -167t178 -255t63.5 -325v-1061z
" />
    <glyph glyph-name="khokhaithai" unicode="&#xe02;" horiz-adv-x="1638" 
d="M1475 569q0 -124 -48.5 -233t-131.5 -190t-195.5 -128t-239.5 -47q-129 0 -241.5 47t-196.5 128t-132 190t-48 233q0 84 14 148.5t39.5 115.5t62 92t82 76.5t99 69.5l112.5 72q32 20 58 40.5t44 46t28 57t10 73.5q0 54 -21 100t-56.5 80.5t-83.5 54t-102 19.5
q-38 0 -73.5 -11.5t-69.5 -37.5t-66.5 -67t-64.5 -101l-225 147q95 169 222 248.5t277 79.5q111 0 207.5 -41t168 -111t112.5 -163t41 -197q0 -81 -14.5 -141.5t-41.5 -107.5t-64 -83t-82.5 -68t-97 -62.5t-106.5 -66.5q-35 -24 -61.5 -50.5t-43.5 -57.5t-25.5 -68.5
t-8.5 -85.5q0 -68 27 -128t73.5 -105t110 -71.5t137.5 -26.5q72 0 135 26t109.5 70.5t73 105t26.5 129.5v1274h271v-1274z" />
    <glyph glyph-name="khokhuatthai" unicode="&#xe03;" horiz-adv-x="1618" 
d="M1454 573q0 -83 -22 -159.5t-62 -143.5t-95.5 -122t-124 -94.5t-147 -61t-163.5 -21.5q-129 0 -242 47t-196.5 128.5t-132 191t-48.5 235.5q0 107 23.5 185t62 135.5t88 99t101 75l101 63t88 64t62 77.5t23.5 104q0 56 -21 101.5t-61 83.5l-233 -197l-394 324l160 184
l225 -184l213 180q183 -71 280 -198.5t97 -297.5q0 -98 -23.5 -166.5t-61.5 -118.5t-87 -86t-100 -67l-100 -62t-87 -71t-61.5 -95t-23.5 -133q0 -69 26.5 -130t73.5 -106.5t110.5 -72t137.5 -26.5q72 0 134.5 25.5t109 70t73.5 106t27 133.5v1270h270v-1270z" />
    <glyph glyph-name="khokhwaithai" unicode="&#xe04;" horiz-adv-x="1843" 
d="M1679 0h-274v1130q0 97 -38.5 182t-104.5 148.5t-154 100t-186 36.5q-103 0 -191.5 -36.5t-153.5 -100t-102 -148.5t-37 -182v-69h484v-262h-484v-799h-274v1130q0 101 27 195t76.5 175.5t118.5 148.5t153.5 115t181.5 74t201 26t200.5 -26t181 -74t153.5 -115
t118.5 -148.5t76.5 -175.5t27 -195v-1130z" />
    <glyph glyph-name="khokhonthai" unicode="&#xe05;" horiz-adv-x="1933" 
d="M1769 0h-274v1176q0 120 -51.5 221t-140.5 172l-336 -303l-332 303q-96 -71 -146.5 -174t-50.5 -224v-106h525v-266h-525v-799h-274v1176q0 117 34 223t98.5 198.5t157.5 168t210 130.5l303 -270l303 270q118 -55 211 -130.5t157 -168t97.5 -198.5t33.5 -223v-1176z" />
    <glyph glyph-name="khorakhangthai" unicode="&#xe06;" horiz-adv-x="1860" 
d="M1692 696q0 -101 -27 -194.5t-76.5 -174.5t-118.5 -147.5t-153.5 -113.5t-181 -73t-201.5 -26q-72 0 -136 15t-122.5 42.5t-114 67t-110.5 88.5v-184h-275v758q0 92 18 163t48 125.5t67.5 96t77.5 75l77.5 62t67.5 57t48 59.5t18 70q0 28 -10.5 52.5t-26.5 46.5
l-188 -168l-361 303l160 184l197 -156l180 152q78 -31 139 -74t101.5 -96t60 -115t14.5 -129q-2 -69 -21 -121t-48.5 -93.5t-66.5 -74.5l-75 -64l-74.5 -63t-64.5 -71t-45.5 -88t-17.5 -113v-61q0 -97 37 -184t101.5 -153t153 -104.5t191.5 -38.5q101 0 190 36.5t155 100
t104 148.5t38 182v1143h271v-1147z" />
    <glyph glyph-name="ngonguthai" unicode="&#xe07;" horiz-adv-x="1524" 
d="M1360 377q0 -84 -31 -157.5t-85.5 -128t-129 -85.5t-160.5 -31q-61 0 -117 17.5t-103.5 49t-85 75t-62.5 96.5l-529 1118l254 99l525 -1115q15 -34 43.5 -51.5t74.5 -17.5q29 0 53 10t41.5 27t27 40.5t9.5 49.5v1204h-254v266h529v-1466z" />
    <glyph glyph-name="chochanthai" unicode="&#xe08;" horiz-adv-x="1683" 
d="M1520 1151q0 -65 -12 -124t-33 -118l-340 -909h-287l-410 1167h287l270 -774l217 602q16 41 24.5 78.5t8.5 77.5q0 92 -37 173.5t-100.5 142t-147.5 95.5t-178 35q-86 0 -163 -28.5t-138 -84t-102.5 -136t-54.5 -185.5h-275q17 160 79.5 289.5t159.5 221t223.5 141
t270.5 49.5q154 0 288.5 -55.5t234.5 -152t157.5 -226.5t57.5 -279z" />
    <glyph glyph-name="chochingthai" unicode="&#xe09;" horiz-adv-x="1757" 
d="M1589 0h-270v164q-96 -96 -202.5 -144.5t-239.5 -48.5q-99 0 -190 24t-170 68.5t-144 107t-111.5 139t-72 165t-25.5 184.5v185h-131v266h405v-451q0 -90 34.5 -168t94 -135.5t139.5 -90t171 -32.5q92 0 172.5 35t140.5 96t94.5 142.5t34.5 173.5v475q0 92 -37 173.5
t-100.5 142t-147.5 96t-178 35.5q-74 0 -144 -21.5t-129 -63.5t-105 -104t-72 -143h-283q41 146 114 257.5t169 187.5t210.5 114.5t239.5 38.5q101 0 195 -25.5t175.5 -72t148.5 -111.5t114.5 -144.5t73.5 -170.5t26 -189v-1155z" />
    <glyph glyph-name="chochangthai" unicode="&#xe0a;" horiz-adv-x="1651" 
d="M1364 1450q25 -23 46.5 -56t37.5 -73t25.5 -85t9.5 -93v-570q0 -124 -48.5 -233.5t-131.5 -191.5t-195.5 -129.5t-239.5 -47.5q-129 0 -241.5 47.5t-196.5 129.5t-132 191.5t-48 233.5q0 84 14 148.5t39.5 115.5t62 92t82 76.5t99 69.5l112.5 72q32 20 58 40.5t44 46
t28 57t10 73.5q0 54 -20.5 100t-55.5 80.5t-83 54t-103 19.5q-39 0 -74.5 -11.5t-69.5 -37t-66.5 -67t-64.5 -101.5l-225 151q96 164 222 246t278 82q92 0 174 -29t148.5 -80t114 -121t70.5 -151l476 516l204 -172zM1065 1364q0 -96 -23.5 -165t-61.5 -120t-87 -87.5
t-100.5 -68.5l-100.5 -63.5t-87 -70.5t-61.5 -91t-23.5 -125q0 -69 27 -131t73.5 -108.5t110 -73.5t137.5 -27q72 0 135 27t109.5 73.5t73 108.5t26.5 131v570q0 73 -34.5 143t-116.5 144q0 -16 2 -33.5t2 -32.5z" />
    <glyph glyph-name="sosothai" unicode="&#xe0b;" horiz-adv-x="1610" 
d="M1323 1454q25 -23 46.5 -56t37.5 -73t25.5 -85t9.5 -93v-574q0 -124 -48.5 -233.5t-131.5 -191.5t-195.5 -129.5t-239.5 -47.5q-129 0 -241.5 47.5t-196.5 129.5t-132 191.5t-48 233.5q0 126 30.5 211t85 148t129.5 115l164 112q33 23 59 45.5t44 49t27.5 58t9.5 72.5
q0 56 -21 102t-61 83l-242 -209l-397 332l164 184l225 -184l221 188q149 -59 239.5 -156t121.5 -221l471 512l204 -168zM1024 1384q0 -97 -23.5 -167t-61.5 -122.5t-87 -91t-100.5 -72l-100.5 -66.5t-87 -73.5t-61.5 -93t-23.5 -125.5q0 -69 27 -131t73.5 -108.5t110 -73.5
t137.5 -27q72 0 135 27t109.5 73.5t73 108.5t26.5 131v570q0 73 -34.5 140.5t-116.5 141.5q3 -12 3.5 -21.5t0.5 -19.5z" />
    <glyph glyph-name="chochoethai" unicode="&#xe0c;" horiz-adv-x="3056" 
d="M2888 643q0 -164 -53 -289.5t-145 -210.5t-215 -128.5t-263 -43.5q-63 0 -124.5 17.5t-120 48t-112.5 71.5t-102 89v-197h-283v1061q0 123 -44 223.5t-123.5 172t-190 110.5t-244.5 39q-69 0 -136.5 -17.5t-129 -48.5t-116 -73t-97.5 -91l127 -135l-4 -975h274v-266h-548
v1151l-193 205q67 117 156 212t194 162.5t224.5 104.5t248.5 37q192 0 353.5 -60.5t279 -168.5t183 -256.5t65.5 -325.5v-270q0 -82 22 -155t58 -135t84 -112t99 -84.5t103 -53t97 -18.5q86 0 158.5 25.5t125.5 76.5t83 128t30 180v1204h279v-1204z" />
    <glyph glyph-name="dochadathai" unicode="&#xe0e;" horiz-adv-x="1921" 
d="M1319 -696q-72 54 -140 92.5t-134 63t-132 36.5t-135 12q-135 0 -265.5 -48.5t-274.5 -155.5l-168 200q92 69 179.5 119.5t174 83.5t174.5 48.5t180 15.5q140 0 265 -31t243 -96l197 192v1225q0 121 -44 220.5t-122 171t-186.5 110.5t-237.5 39q-68 0 -133.5 -17
t-126.5 -47.5t-114.5 -72.5t-96.5 -93l127 -131v-1241h-451v266h176v881l-188 209q66 115 152.5 209.5t189.5 161.5t220 104t245 37q189 0 347 -60t272 -167t177.5 -255t63.5 -325l4 -1331z" />
    <glyph glyph-name="topatakthai" unicode="&#xe0f;" horiz-adv-x="1921" 
d="M1278 -705l-328 291l-323 -291l-496 459l176 176l324 -290l319 286l320 -286l213 188v1233q0 120 -44 219.5t-122 171t-186.5 111t-237.5 39.5q-68 0 -133.5 -17t-126.5 -47.5t-114.5 -72.5t-96.5 -93l127 -131v-1241h-451v266h176v881l-188 209q66 115 152.5 209.5
t189.5 161.5t220 104t245 37q127 0 240.5 -27.5t209.5 -78t172.5 -123t130.5 -163t82.5 -196t28.5 -223.5v-1319z" />
    <glyph glyph-name="thothanthai" unicode="&#xe10;" horiz-adv-x="1683" 
d="M1368 1585q71 -96 111.5 -204.5t40.5 -229.5q0 -62 -12 -123t-33 -123l-340 -905h-287l-410 1167h287l270 -778l222 602q14 39 21 79.5t7 80.5q0 92 -36 173.5t-98.5 142t-147 95.5t-181.5 35q-86 0 -162.5 -29t-136.5 -84.5t-100.5 -136.5t-54.5 -184h-275
q17 160 79.5 289.5t159 221t222 141t268.5 49.5q109 0 199 -26t174 -73l221 250l213 -180zM1278 -741l-303 286l-307 -286l-475 454l159 164l320 -299l307 287l299 -279l53 45v242h254v-332z" />
    <glyph glyph-name="thonangmonthothai" unicode="&#xe11;" horiz-adv-x="1880" 
d="M1712 0h-270v1343q0 72 -26.5 128t-63.5 90l-910 -1561h-245v729q0 107 24 189t60.5 146.5t79 115.5l79 96.5t60.5 90t24 95.5q0 31 -8.5 55.5t-23.5 43.5l-177 -168l-352 303l160 184l184 -156l172 152q158 -62 235 -162t77 -239q0 -78 -24.5 -141t-60.5 -118.5
t-79 -107t-79 -106.5t-60.5 -117.5t-24.5 -139.5v-192l762 1307q121 -12 212.5 -58t152.5 -116.5t91.5 -162t30.5 -196.5v-1327z" />
    <glyph glyph-name="thophuthaothai" unicode="&#xe12;" horiz-adv-x="3117" 
d="M2949 643q0 -164 -53 -289t-145 -209t-215 -127t-263 -43q-62 0 -124.5 17.5t-122 48.5t-113.5 73t-98 91v-205h-283v1204q0 121 -53.5 211.5t-143.5 149.5l-323 -258l-324 266q-66 -42 -123 -102.5t-98.5 -143.5t-65.5 -190t-24 -240q0 -141 33 -261t94 -207.5
t147.5 -137t192.5 -49.5q26 0 48.5 5t46.5 17.5t52.5 34t65.5 53.5l196 -188q-107 -95 -204.5 -142t-204.5 -47q-123 0 -226 33.5t-186 93.5t-145.5 145t-104.5 187t-63 219.5t-21 243.5q0 196 46 356t129.5 283.5t199.5 210t256 137.5l283 -229l282 225
q117 -43 212.5 -106.5t163.5 -147.5t105.5 -187.5t39.5 -226.5v-442q0 -77 21 -146.5t56.5 -129t82.5 -108t97.5 -82.5t102.5 -52.5t98 -18.5q86 0 159 25.5t126 76.5t83 128t30 180v1204h278v-1204z" />
    <glyph glyph-name="nonenthai" unicode="&#xe13;" horiz-adv-x="3035" 
d="M2589 0v172q-189 -201 -451 -201q-141 0 -262.5 43.5t-210.5 128.5t-139.5 210.5t-50.5 289.5v418q0 123 -44.5 223t-125 170.5t-192 109t-245.5 38.5q-69 0 -136.5 -17t-129 -47t-116 -71.5t-97.5 -90.5l127 -135v-975h270v-266h-548v1147l-193 209q67 117 156 211.5
t194 161t224.5 103t248.5 36.5q192 0 353.5 -60t279 -167t183 -255t65.5 -325l4 -418q0 -104 29.5 -181t81.5 -128t122.5 -76t151.5 -25t162 39t145 106.5t104 157.5t40 193v1114h278v-1843h-278z" />
    <glyph glyph-name="dodekthai" unicode="&#xe14;" horiz-adv-x="1933" 
d="M1491 0v1151q0 89 -31 163t-84.5 130.5t-125 94t-151.5 54.5t-165 11t-165 -36.5t-151.5 -86.5t-125 -141t-84.5 -199t-31 -260q0 -137 33 -253.5t94 -201t147.5 -132.5t192.5 -48q26 0 48.5 5t46.5 17.5t52.5 34t65.5 53.5l196 -188q-107 -95 -204.5 -141.5
t-204.5 -46.5q-185 0 -324.5 70t-233 191.5t-141 286t-47.5 353.5q0 173 35.5 313.5t98.5 250t148.5 189.5t184.5 132t208 77t218 25q97 0 192.5 -22t182 -63.5t160.5 -103t128 -140t84.5 -174t30.5 -206.5v-1159h-278z" />
    <glyph glyph-name="totaothai" unicode="&#xe15;" horiz-adv-x="1946" 
d="M1507 0v1196q0 121 -53 213.5t-143 151.5l-316 -258l-319 262q-63 -42 -118 -104.5t-96.5 -146.5t-65 -190t-23.5 -235q0 -138 32.5 -256t92.5 -204t144.5 -134.5t188.5 -48.5q23 0 45 4.5t45.5 17t51.5 35t63 57.5l197 -188q-102 -96 -200.5 -142t-201.5 -46
q-180 0 -317 70t-229.5 192t-139.5 287t-47 356q0 198 45.5 358.5t127 284t195.5 209.5t251 135l278 -229l279 229q115 -43 208 -107.5t159 -149t101.5 -188.5t35.5 -227v-1204h-271z" />
    <glyph glyph-name="thothungthai" unicode="&#xe16;" horiz-adv-x="1884" 
d="M1720 0h-274v1061q0 123 -44 223.5t-122 172t-186.5 110.5t-237.5 39q-68 0 -133.5 -17.5t-126.5 -48.5t-114.5 -73t-96.5 -91l123 -135v-979l270 4v-266h-540v1151l-189 205q69 117 156 211.5t189 161t218 103t244 36.5q190 0 349 -60t273.5 -167t178 -255t63.5 -325
v-1061z" />
    <glyph glyph-name="thothahanthai" unicode="&#xe17;" horiz-adv-x="1843" 
d="M1679 0h-274v1204q0 98 -35.5 174t-94 127.5t-135 78t-157.5 26.5q-66 0 -131.5 -19.5t-126 -55t-113 -85.5t-91.5 -110t-61 -128.5t-22 -142.5v-1069h-274v1843h274v-237q57 63 123 113t136.5 85t144 53.5t145.5 18.5q87 0 172 -19t162 -57t142.5 -94t113.5 -131
t75 -167.5t27 -203.5v-1204z" />
    <glyph glyph-name="thothongthai" unicode="&#xe18;" horiz-adv-x="1745" 
d="M1352 1278q-37 98 -98 163.5t-135 104.5t-156 55.5t-160 16.5q-91 0 -168 -22t-133.5 -53t-88.5 -65t-32 -57q0 -35 32.5 -62t82 -46.5t110 -33.5t116.5 -23t100.5 -14.5t62.5 -8.5q80 -14 163.5 -34.5t162 -52t148 -76.5t121.5 -107.5t82.5 -145.5t30.5 -190
q0 -152 -58.5 -273t-158.5 -205t-232.5 -129t-279.5 -45t-279 45t-231 129t-157 205t-58 273v364h271v-364q0 -88 34 -159t94.5 -121.5t144 -77.5t181.5 -27q100 0 183.5 27t144 77.5t94 121.5t33.5 159q0 81 -34.5 137t-91 94.5t-129 62.5t-148.5 39.5t-149.5 25.5
t-131.5 22q-52 11 -111.5 26.5t-118.5 37.5t-113 52.5t-95.5 71.5t-66 94t-24.5 119q0 78 31 143.5t84.5 118t124.5 92.5t150 67t162 40.5t161 13.5q120 0 236.5 -26t220 -86t188.5 -159t142 -245z" />
    <glyph glyph-name="nonuthai" unicode="&#xe19;" horiz-adv-x="1843" 
d="M1405 0v233q-60 -61 -127 -109.5t-137.5 -82.5t-143.5 -52t-145 -18q-129 0 -252.5 43t-220.5 127.5t-156 210t-59 291.5v1200h274v-1200q0 -100 35 -176.5t93.5 -128.5t134.5 -78.5t159 -26.5q66 0 132.5 19t127 53.5t112.5 83t90.5 108.5t60.5 130t22 147v1069h274
v-1843h-274z" />
    <glyph glyph-name="bobaimaithai" unicode="&#xe1a;" horiz-adv-x="1843" 
d="M1679 713q0 -103 -27 -197.5t-76.5 -176.5t-118.5 -149t-153.5 -115t-181 -74t-200.5 -26q-105 0 -201.5 26t-181 74t-153.5 115t-118.5 149t-76.5 177t-27 197v1130h274v-1130q0 -97 37 -182.5t102 -149.5t153.5 -101.5t191.5 -37.5q98 0 186 37.5t154 101.5
t104.5 149.5t38.5 182.5v1130h274v-1130z" />
    <glyph glyph-name="poplathai" unicode="&#xe1b;" horiz-adv-x="1843" 
d="M1679 717q0 -103 -27 -197t-76.5 -176t-118.5 -149t-153.5 -115t-181 -74t-200.5 -26q-105 0 -201.5 26t-181 74t-153.5 115t-118.5 149t-76.5 176.5t-27 196.5v1126h274v-1126q0 -97 37 -182.5t102 -149.5t153.5 -101.5t191.5 -37.5q98 0 186 37.5t154 101.5
t104.5 149.5t38.5 182.5v1872h274v-1872z" />
    <glyph glyph-name="phophungthai" unicode="&#xe1c;" horiz-adv-x="2081" 
d="M1917 471q0 -101 -40 -190t-109 -155t-161.5 -104t-197.5 -38q-219 0 -369 155q-74 -77 -165.5 -116t-202.5 -39q-105 0 -197.5 38t-161.5 104t-109 155t-40 190v659q0 101 28 195t79.5 175.5t126 148.5t167 115t202 74t232.5 26v-267q-131 0 -234.5 -36.5t-176.5 -100
t-111.5 -148.5t-38.5 -182v-659q0 -48 18 -89t49.5 -71t74.5 -47.5t92 -17.5q48 0 90 17.5t74 47.5t50.5 71t18.5 89v729h271v-729q0 -48 18.5 -89t50.5 -71t74 -47.5t90 -17.5q49 0 91.5 17.5t74 47.5t49.5 71t18 89v1372h275v-1372z" />
    <glyph glyph-name="fofathai" unicode="&#xe1d;" horiz-adv-x="2081" 
d="M1917 471q0 -101 -40 -190t-109 -155t-161.5 -104t-197.5 -38q-219 0 -369 155q-74 -77 -165.5 -116t-202.5 -39q-105 0 -197.5 38t-161.5 104t-109 155t-40 190v659q0 102 28 196.5t79.5 176t126 148t167 114t202 73.5t232.5 26v-267q-131 0 -234.5 -36.5t-176.5 -100
t-111.5 -148.5t-38.5 -182v-659q0 -48 18 -89t49.5 -71t74.5 -47.5t92 -17.5q48 0 90 17.5t74 47.5t50.5 71t18.5 89v729h271v-729q0 -48 18.5 -89t50.5 -71t74 -47.5t90 -17.5q49 0 91.5 17.5t74 47.5t49.5 71t18 89v2118h275v-2118z" />
    <glyph glyph-name="phophanthai" unicode="&#xe1e;" horiz-adv-x="2154" 
d="M1991 492q0 -105 -41 -198t-112.5 -162.5t-167 -110.5t-204.5 -41q-120 0 -219 45t-170 122q-71 -77 -169.5 -122t-219.5 -45q-109 0 -204.5 41t-166.5 110.5t-112 162.5t-41 198v1351h270v-1351q0 -51 19.5 -96t54 -78t80.5 -52.5t100 -19.5t100 19.5t80.5 52.5t54 78
t19.5 96v1351h270v-1351q0 -51 19.5 -96t54 -78t80.5 -52.5t100 -19.5t100.5 19.5t80.5 52.5t53.5 78t19.5 96v1351h271v-1351z" />
    <glyph glyph-name="fofanthai" unicode="&#xe1f;" horiz-adv-x="2159" 
d="M1995 492q0 -70 -18.5 -135t-53 -122t-82.5 -104t-107 -80.5t-126.5 -52t-141.5 -18.5q-114 0 -214 45t-175 122q-71 -77 -169.5 -122t-219.5 -45q-108 0 -203 41t-166.5 110.5t-113 162.5t-41.5 198v1351h274v-1351q0 -51 19 -96t52.5 -78t79 -52.5t99.5 -19.5t100 19.5
t80.5 52.5t54 78t19.5 96v1351h275v-1351q0 -51 19 -96t52 -78t78.5 -52.5t99.5 -19.5t100.5 19.5t80.5 52.5t53.5 78t19.5 96v2097h275v-2097z" />
    <glyph glyph-name="phosamphaothai" unicode="&#xe20;" horiz-adv-x="1921" 
d="M1483 0v1061q0 123 -44 223.5t-122 172t-186.5 110.5t-237.5 39q-68 0 -133.5 -17.5t-126.5 -48.5t-114.5 -73t-96.5 -91l127 -135v-1241h-451v266h176v885l-188 205q66 117 152.5 211.5t189.5 161t220 103t245 36.5q190 0 349 -60t273.5 -167t178 -255t63.5 -325v-1061
h-274z" />
    <glyph glyph-name="momathai" unicode="&#xe21;" horiz-adv-x="1843" 
d="M1679 643q0 -111 -27 -203.5t-75 -167t-113.5 -131t-142.5 -94.5t-162 -57t-172 -19q-72 0 -144.5 18t-142 52t-136 82.5t-126.5 109.5v-233h-274v1843h274v-1069q0 -74 22 -142.5t61 -128.5t91.5 -110t113 -85.5t126 -55t131.5 -19.5q81 0 157.5 26.5t135 78.5t94 128.5
t35.5 176.5v1200h274v-1200z" />
    <glyph glyph-name="yoyakthai" unicode="&#xe22;" horiz-adv-x="1823" 
d="M1659 717q0 -103 -27 -197.5t-77 -177t-119.5 -150t-154.5 -116t-183.5 -75t-204.5 -26.5q-100 0 -193.5 24t-176 69t-151.5 109t-121 143.5t-84 173t-40 198.5l274 275q-54 49 -100 95t-80.5 97t-54 111.5t-19.5 138.5q0 94 36.5 177.5t100.5 146t150 99t184 36.5
q48 0 94 -9.5t93 -31t96 -56t103 -83.5l-197 -189q-35 31 -62 51t-49.5 31.5t-42 16t-39.5 4.5q-41 0 -77 -14.5t-62.5 -40.5t-41.5 -61t-15 -77q0 -78 69 -147l299 -299l-368 -369q20 -78 64.5 -143.5t107 -113t140 -73.5t163.5 -26q103 0 192.5 38t156 103t104.5 152.5
t38 185.5v1126h275v-1126z" />
    <glyph glyph-name="roruathai" unicode="&#xe23;" horiz-adv-x="1671" 
d="M1282 1274q-32 98 -80.5 165t-110 107.5t-134.5 58t-154 17.5q-84 0 -155 -18.5t-122 -52.5t-79.5 -82.5t-28.5 -108.5q0 -43 31 -71.5t84.5 -49t125 -35t151.5 -29t165 -32.5t165 -45t151.5 -66.5t125 -96.5t84.5 -134.5t31 -182.5t-28.5 -194.5t-78 -161.5t-117 -127.5
t-146 -92.5t-164 -56t-171.5 -19q-82 0 -165 17.5t-160 52.5t-145.5 89t-121.5 126.5t-87 165t-42 205.5l263 90q12 -132 51.5 -223.5t100 -148.5t138 -82.5t164.5 -25.5q91 0 170 25.5t137.5 75t92.5 121t34 163.5q0 70 -31 118t-84.5 81t-124.5 54.5t-151 37.5t-164 30.5
t-164 34t-151 48t-124.5 72.5t-84.5 106.5t-31 151.5q0 88 26.5 161.5t72.5 132.5t108.5 104t135 74.5t151.5 44.5t158 15q112 0 224.5 -27t211.5 -88t177.5 -159.5t123.5 -241.5z" />
    <glyph glyph-name="ruthai" unicode="&#xe24;" horiz-adv-x="1884" 
d="M1720 -700h-274v1761q0 120 -44 219.5t-122 171t-186.5 111t-237.5 39.5q-68 0 -133.5 -17.5t-126.5 -48.5t-114.5 -73t-96.5 -91l123 -135v-971h270v-266h-540v1147l-189 209q66 115 152.5 209.5t189.5 161.5t220 104t245 37q190 0 349 -60t273.5 -167t178 -255
t63.5 -325v-1761z" />
    <glyph glyph-name="lolingthai" unicode="&#xe25;" horiz-adv-x="1806" 
d="M1372 0v508q0 106 -41 186.5t-109 134.5t-155.5 81.5t-181.5 27.5q-92 0 -177.5 -27.5t-150.5 -81.5t-104 -134.5t-39 -186.5q0 -98 49.5 -189t163.5 -180l-189 -192q-151 120 -225 261.5t-74 299.5q0 108 29 202.5t80.5 172t122 138t153.5 102.5t175 63.5t186 21.5
q127 0 251.5 -38t235.5 -121v127q0 104 -43 183t-112.5 132t-158.5 79.5t-181 26.5q-86 0 -165.5 -22.5t-144 -71.5t-109 -126.5t-61.5 -188.5h-274q11 119 47.5 215t91.5 171t125.5 130t150.5 90.5t166.5 52.5t172.5 17q90 0 181.5 -19t176.5 -57.5t159.5 -96t129.5 -134
t86.5 -172t31.5 -209.5v-1176h-270z" />
    <glyph glyph-name="luthai" unicode="&#xe26;" horiz-adv-x="1921" 
d="M1483 -700v1761q0 121 -44 220.5t-122 171t-186.5 110.5t-237.5 39q-68 0 -133.5 -17t-126.5 -47t-114.5 -71.5t-96.5 -90.5l127 -135v-1241h-451v266h176v881l-188 209q66 117 152.5 211.5t189.5 161t220 103t245 36.5q127 0 240.5 -27.5t209.5 -78t172.5 -123
t130.5 -162t82.5 -194.5t28.5 -222v-1761h-274z" />
    <glyph glyph-name="wowaenthai" unicode="&#xe27;" horiz-adv-x="1696" 
d="M1532 922q0 -161 -39 -300t-108.5 -252.5t-164 -197.5t-205 -134.5t-232.5 -63.5t-246.5 15.5t-246.5 101.5t-233 196l172 188q80 -90 166.5 -144.5t173.5 -76.5t171.5 -14.5t160.5 42.5t140.5 95t111.5 141.5t73.5 183.5t26.5 220q0 158 -45.5 285.5t-122.5 216.5
t-179.5 135.5t-216 43t-232 -60t-228.5 -174.5l-172 188q111 124 233.5 197.5t247.5 102t247 14.5t232.5 -64t204.5 -134.5t163 -198t108 -252.5t39 -299z" />
    <glyph glyph-name="sosalathai" unicode="&#xe28;" horiz-adv-x="1843" 
d="M1520 1593q74 -96 116.5 -208.5t42.5 -245.5v-1139h-274v1139q0 97 -37 182t-102 148.5t-153 100t-191 36.5q-99 0 -187 -36.5t-154 -100t-104.5 -148.5t-38.5 -182v-74h488v-258h-488v-807h-274v1139q0 101 27 195t76.5 175t118.5 148t153.5 115t181.5 74t201 26
q108 0 203 -26t182 -72l221 241l213 -176z" />
    <glyph glyph-name="sorusithai" unicode="&#xe29;" horiz-adv-x="1847" 
d="M1679 946v-233q0 -103 -27 -197.5t-76.5 -176.5t-118.5 -149t-153.5 -115t-181 -74t-200.5 -26q-105 0 -201.5 26t-181 74t-153.5 115t-118.5 149t-76.5 177t-27 197v1130h274v-1130q0 -98 37 -184t102 -150t153.5 -100.5t191.5 -36.5q98 0 186 36.5t154 100.5t104.5 150
t38.5 184v233h-229q-62 0 -114.5 22t-90.5 60.5t-60 89t-22 107.5v168h262v-160q0 -25 25 -25h229v635h274v-635h172v-262h-172z" />
    <glyph glyph-name="sosuathai" unicode="&#xe2a;" horiz-adv-x="1806" 
d="M1507 1585q68 -83 101.5 -186t33.5 -223v-1176h-270v512q0 106 -41 186t-109 133t-155.5 80t-181.5 27q-92 0 -177.5 -27.5t-150.5 -81t-104 -133t-39 -184.5q0 -98 49.5 -189t163.5 -180l-189 -196q-151 120 -225 262t-74 303q0 106 29 199t80.5 170.5t122 138
t153.5 102.5t175 64t186 22q127 0 251.5 -36t235.5 -119v123q0 103 -43 182.5t-112.5 133.5t-158.5 82t-181 28q-86 0 -165.5 -23t-144 -73t-109 -128.5t-61.5 -189.5h-274q11 120 47.5 217t91.5 172.5t125.5 130.5t150.5 90.5t166.5 52.5t172.5 17q108 0 211 -25t202 -78
l230 250l213 -184z" />
    <glyph glyph-name="hohipthai" unicode="&#xe2b;" horiz-adv-x="1888" 
d="M1724 0h-274v918q0 60 -23 110.5t-61.5 88.5t-88 62.5t-102.5 31.5t-106 -4t-98 -44l-533 -377v-786h-274v1843h274v-741l1102 778l160 -201l-352 -249q86 -33 155.5 -85t118.5 -119.5t75.5 -148.5t26.5 -172v-905z" />
    <glyph glyph-name="lochulathai" unicode="&#xe2c;" horiz-adv-x="2159" 
d="M1995 1958q0 -89 -20.5 -159t-78.5 -116q58 -65 78.5 -140.5t20.5 -170.5v-880q0 -106 -41 -198.5t-112.5 -161.5t-168 -108.5t-207.5 -39.5q-114 0 -214 45t-175 123q-71 -78 -169.5 -123t-219.5 -45q-108 0 -203 39.5t-166.5 108.5t-113 161.5t-41.5 198.5v1351h274
v-1351q0 -50 19 -94t52.5 -77t79 -52t99.5 -19t100 19.5t80.5 52.5t54 78t19.5 96v811h275v-815q0 -51 19 -95t52 -77t78.5 -51.5t99.5 -18.5t100.5 19t80.5 52t53.5 77t19.5 94v876q0 63 -14.5 106.5t-40.5 71t-62 39.5t-79 12h-230v246h242q60 0 97 4t57 17t27 36.5
t7 61.5l5 78h266v-82z" />
    <glyph glyph-name="oangthai" unicode="&#xe2d;" horiz-adv-x="2048" 
d="M1929 926q0 -128 -29 -249t-83.5 -227.5t-133 -195t-178.5 -152.5t-219 -99.5t-254 -35.5q-143 0 -269 39t-230.5 109.5t-186 168t-134 214.5t-75.5 249.5t-10 272.5h913v-262h-622q23 -112 76.5 -208.5t132.5 -168t181.5 -112t223.5 -40.5q135 0 249.5 53.5t197.5 147
t129.5 221t46.5 275.5q0 149 -45 277t-126.5 222t-196.5 147.5t-255 53.5q-100 0 -191.5 -29t-170 -87t-142 -145t-106.5 -202l-254 107q60 146 146.5 260.5t196.5 194t241 121.5t280 42q139 0 259.5 -35.5t220.5 -100t177.5 -153.5t130.5 -196t81 -228t28 -249z" />
    <glyph glyph-name="honokhukthai" unicode="&#xe2e;" horiz-adv-x="2048" 
d="M1700 1589q111 -133 170 -302.5t59 -364.5q0 -128 -29 -249t-83.5 -227.5t-133 -195t-178.5 -152.5t-219 -99.5t-254 -35.5q-144 0 -269.5 39.5t-228 110t-182 168.5t-132 215.5t-76.5 250.5t-17 273h913v-266h-622q23 -112 76.5 -208t132.5 -166.5t181.5 -110.5
t223.5 -40q135 0 249.5 53t197.5 146.5t129.5 221t46.5 276.5t-45 276.5t-126.5 220.5t-196.5 146t-255 53q-100 0 -191.5 -29.5t-170 -87.5t-142 -144t-106.5 -198l-254 103q60 146 146.5 261.5t196.5 195.5t241 122.5t280 42.5q133 0 244 -30t207 -89l254 283l213 -180z
" />
    <glyph glyph-name="paiyannoithai" unicode="&#xe2f;" horiz-adv-x="1679" 
d="M1241 0v1237q-179 -135 -414 -135q-143 0 -268.5 53.5t-218.5 151t-147 234t-54 302.5h271q0 -112 33 -201t89.5 -150.5t132.5 -94.5t162 -33t161.5 33t131.5 94.5t88.5 150.5t32.5 201h275v-1843h-275z" />
    <glyph glyph-name="saraathai" unicode="&#xe30;" horiz-adv-x="877" 
d="M418 1176q-62 0 -115.5 23.5t-93.5 64t-63 93.5t-23 113v148h258v-148q0 -15 11.5 -25.5t21.5 -10.5h336v-254zM418 176q-62 0 -115.5 23.5t-93.5 64t-63 94t-23 113.5v147h258v-147q0 -15 11.5 -26t21.5 -11h336v-258h-332z" />
    <glyph glyph-name="maihanakatthai" unicode="&#xe31;" 
d="M-909 2126q-60 0 -113 23.5t-92.5 64t-62.5 94t-23 113.5v168h258v-168q0 -33 33 -33h909v-258z" />
    <glyph glyph-name="saraaathai" unicode="&#xe32;" horiz-adv-x="1393" 
d="M1229 0h-271v1167q0 212 -104.5 327.5t-312.5 115.5q-54 0 -100.5 -7t-89.5 -25t-84.5 -49t-86.5 -79l-188 188q66 61 130 105t131 71.5t139 40.5t153 13q177 0 306 -53.5t213 -145t124.5 -213t40.5 -256.5v-1200z" />
    <glyph glyph-name="saraamthai" unicode="&#xe33;" horiz-adv-x="1393" 
d="M-8 2355q0 -60 -23 -113t-63 -92.5t-94 -62.5t-115 -23q-62 0 -115.5 23t-93.5 62.5t-63 92.5t-23 113q0 61 23 115t63 94t93.5 63t115.5 23q61 0 115 -23t94 -63t63 -94t23 -115zM1229 0h-275v1167q0 212 -104.5 327.5t-312.5 115.5q-51 0 -96.5 -7t-88.5 -25t-85 -49
t-87 -79l-188 188q63 61 127 105t131.5 71.5t140.5 40.5t154 13q177 0 306 -53.5t213 -145t124.5 -213t40.5 -256.5v-1200zM-209 2355q0 40 -27 67t-67 27q-20 0 -37.5 -7t-31 -20t-21.5 -30t-8 -37t8 -37.5t21.5 -31t31 -21.5t37.5 -8t37 8t30 21.5t20 31t7 37.5z" />
    <glyph glyph-name="saraithai" unicode="&#xe34;" 
d="M-1663 2130v258h1499v-258h-1499z" />
    <glyph glyph-name="saraiithai" unicode="&#xe35;" 
d="M-1663 2130v258h1241v246h258v-504h-1499z" />
    <glyph glyph-name="sarauethai" unicode="&#xe36;" 
d="M-139 2384q0 -54 -20 -100t-54.5 -80.5t-79.5 -54t-96 -19.5h-1274v258h1020q1 54 21.5 99t54.5 77.5t78.5 51t95.5 18.5q54 0 100 -19t80.5 -52.5t54 -79t19.5 -99.5zM-307 2380q0 17 -7 32.5t-19 27.5t-27.5 19t-32.5 7t-32.5 -7t-27.5 -19t-19 -27.5t-7 -32.5t7 -32.5
t19 -27.5t27.5 -19t32.5 -7t32.5 7t27.5 19t19 27.5t7 32.5z" />
    <glyph glyph-name="saraueethai" unicode="&#xe37;" 
d="M-1663 2130v258h811v246h254v-246h176v246h258v-504h-1499z" />
    <glyph glyph-name="sarauthai" unicode="&#xe38;" 
d="M-422 -770v328h-164v262h279q31 0 57 -11.5t45 -31t30 -46t11 -55.5v-446h-258z" />
    <glyph glyph-name="sarauuthai" unicode="&#xe39;" 
d="M-164 -467q0 -74 -28 -139t-76 -113t-112 -76t-136 -28q-74 0 -139 28t-113 76t-76 113t-28 139v25h-164v262h422v-287q0 -20 7 -37.5t20 -31t30 -21.5t37 -8q46 0 72 29t26 69v287h258v-287z" />
    <glyph glyph-name="phinthuthai" unicode="&#xe3a;" 
d="M-119 -332q0 -37 -14.5 -69.5t-39 -57t-57 -39t-69.5 -14.5t-69.5 14.5t-57 39t-39 57t-14.5 69.5t14.5 70t39 57.5t57 38.5t69.5 14t69.5 -14t57 -38.5t39 -57.5t14.5 -70z" />
    <glyph glyph-name="PUCR2005" unicode="&#xe3e;" 
 />
    <glyph glyph-name="bahtthai" unicode="&#xe3f;" horiz-adv-x="1597" 
d="M1524 635q0 -146 -50 -261.5t-138.5 -197t-209.5 -127t-262 -49.5v-332h-246v332h-462v2163h462v311h246v-320q118 -17 208 -67.5t150 -127.5t90.5 -177t30.5 -217q0 -123 -37.5 -219t-125.5 -179q81 -38 145 -92t108.5 -121.5t67.5 -147.5t23 -171zM1090 1581
q0 121 -55.5 201t-170.5 114v-643q60 17 103 48t70 73t40 94.5t13 112.5zM618 1917h-212v-680h212v680zM1270 631q0 100 -33 165t-88.5 105t-129.5 59t-155 27v-745q85 6 159 33t129 75.5t86.5 118.5t31.5 162zM618 991h-212v-749h212v749z" />
    <glyph glyph-name="saraethai" unicode="&#xe40;" horiz-adv-x="725" 
d="M225 0v1843h275v-1843h-275z" />
    <glyph glyph-name="saraaethai" unicode="&#xe41;" horiz-adv-x="1327" 
d="M827 0v1843h275v-1843h-275zM225 0v1843h275v-1843h-275z" />
    <glyph glyph-name="saraothai" unicode="&#xe42;" horiz-adv-x="754" 
d="M262 2404q-22 0 -41.5 -5.5t-19.5 -26.5q0 -24 45 -50q57 -35 105 -72t83 -82.5t54.5 -102.5t19.5 -132v-1933h-275v1937q0 36 -14.5 63t-36.5 48.5t-48.5 39l-51.5 34.5q-29 19 -57 44t-50 56.5t-35.5 70.5t-13.5 87q0 90 35.5 145.5t89.5 86t117 40.5t119 10h536v-258
h-561z" />
    <glyph glyph-name="saraaimaimuanthai" unicode="&#xe43;" horiz-adv-x="754" 
d="M782 2220q0 -99 -38.5 -184.5t-100.5 -147.5l-131 -131v-1757h-274v1868q16 16 42.5 39.5l56.5 51.5t60.5 60t55 66t40 68t15.5 67q0 38 -14.5 73t-40.5 61.5t-61 42.5t-77 16q-41 0 -77 -16.5t-62.5 -50t-41.5 -84.5t-15 -120h-275q0 124 36.5 224.5t100 170.5
t148.5 108t182 38q98 0 184 -36t149.5 -98.5t100.5 -147t37 -181.5z" />
    <glyph glyph-name="saraaimaimalaithai" unicode="&#xe44;" horiz-adv-x="754" 
d="M831 2380q0 -48 -13.5 -87t-35 -71t-49.5 -56.5t-57 -43.5l-52 -34.5t-49 -39t-36.5 -48.5t-14.5 -63v-1937h-274v1933q0 75 18.5 132t52.5 102.5t82.5 82.5t108.5 72q45 26 45 50q0 21 -20 26.5t-41 5.5h-566v258h537q39 0 81 -4t82.5 -15.5t77 -31t64 -51t43.5 -76
t16 -104.5z" />
    <glyph glyph-name="lakkhangyaothai" unicode="&#xe45;" horiz-adv-x="1413" 
d="M1229 -700h-271v1867q0 212 -104.5 327.5t-312.5 115.5q-54 0 -100.5 -7t-89.5 -25t-84.5 -49t-86.5 -79l-188 188q66 61 130 105t131 71.5t139 40.5t153 13q177 0 306 -53.5t213 -145t124.5 -213t40.5 -256.5v-1900z" />
    <glyph glyph-name="maiyamokthai" unicode="&#xe46;" horiz-adv-x="1937" 
d="M1430 -700v1839q0 63 -15.5 121.5t-44.5 110.5t-70 97t-92 80l-282 -282l-283 282q-51 -35 -91.5 -80.5t-69.5 -98.5t-44.5 -112t-15.5 -122q0 -51 10.5 -99.5t34 -97t60.5 -99.5t91 -106l-188 -188q-144 144 -211 288.5t-67 301.5q0 123 36.5 235t106.5 206.5t171 169
t230 122.5l230 -230l233 230q127 -48 227.5 -121.5t170.5 -168t106.5 -205.5t36.5 -234v-1839h-270z" />
    <glyph glyph-name="maitaikhuthai" unicode="&#xe47;" 
d="M-1184 2671q-32 0 -57.5 -13t-42.5 -35t-26 -51t-9 -61q0 -31 9 -59t26 -49.5t41 -34.5t55 -13q29 0 54 10t43 32.5t28 59.5t10 91h242q0 -54 11.5 -91t30 -59.5t43 -32.5t50.5 -10q29 0 54 10t43 32.5t28 59.5t10 91h250q0 -105 -30 -186.5t-82 -137.5t-121.5 -85.5
t-147.5 -29.5q-77 0 -142.5 28t-115.5 75q-49 -47 -114 -75t-140 -28q-86 0 -156 30t-120 83.5t-77.5 127t-27.5 161.5q0 87 27.5 161.5t77.5 128.5t120 84.5t156 30.5h1020v-245h-1020z" />
    <glyph glyph-name="maiekthai" unicode="&#xe48;" 
d="M-418 2777v504h254v-504h-254z" />
    <glyph glyph-name="maithothai" unicode="&#xe49;" 
d="M-913 2773l29.5 44.5l39.5 58.5l42 63l38 59t28 46t11 24q0 74 -57 74q-31 0 -58 -25l-164 164q94 86 218 86q66 0 129 -23.5t108.5 -63t66.5 -92.5t3 -112l-17 -57q10 0 23.5 2t38.5 2h434v-250h-913z" />
    <glyph glyph-name="maitrithai" unicode="&#xe4a;" 
d="M-528 2777l110 205q7 13 7 29t-6 29.5t-18 22.5t-28 9q-8 0 -19 -2.5t-21 -12t-17.5 -28.5t-7.5 -51h-213q0 29 -4.5 47.5t-12.5 29t-19.5 14t-25.5 3.5q-25 0 -39 -20t-14 -41v-14.5t6 -23t21.5 -29t46.5 -32.5l-164 -159q-42 35 -70 67.5t-45.5 64t-25 63t-7.5 63.5
q0 60 23 112.5t62.5 92t92.5 62.5t113 23q23 0 47.5 -5t47 -13.5t42 -20.5t31.5 -26q25 28 72 46.5t96 18.5q60 0 112.5 -21.5t91.5 -59.5t62 -89.5t25 -111.5h270v-242h-622z" />
    <glyph glyph-name="maichattawathai" unicode="&#xe4b;" 
d="M-164 2957v-180h-258v176h-172v221h172v181h258v-177h172v-221h-172z" />
    <glyph glyph-name="thanthakhatthai" unicode="&#xe4c;" 
d="M-348 2871q-9 0 -23 -9.5t-14 -31.5q0 -6 1.5 -13.5t8 -17.5t20 -23.5t36.5 -31.5l-173 -168q-41 39 -68 72.5t-43 64t-22 59.5t-6 58q0 60 21.5 112.5t60 91t90 61t111.5 22.5h287v-246h-287z" />
    <glyph glyph-name="nikhahitthai" unicode="&#xe4d;" 
d="M-8 2355q0 -60 -23 -113t-63 -92.5t-94 -62.5t-115 -23q-62 0 -115.5 23t-93.5 62.5t-63 92.5t-23 113q0 61 23 115t63 94t93.5 63t115.5 23q61 0 115 -23t94 -63t63 -94t23 -115zM-209 2355q0 40 -27 67t-67 27q-20 0 -37.5 -7t-31 -20t-21.5 -30t-8 -37t8 -37.5
t21.5 -31t31 -21.5t37.5 -8t37 8t30 21.5t20 31t7 37.5z" />
    <glyph glyph-name="yamakkanthai" unicode="&#xe4e;" 
d="M-250 2785q-37 37 -64 51.5t-55 14.5q-29 0 -54.5 -10.5t-44 -28.5t-29.5 -42.5t-11 -53.5q0 -59 44.5 -97.5t139.5 -38.5v-192q-48 0 -82.5 -10t-57 -28t-33.5 -43t-11 -54q0 -59 44.5 -97t139.5 -38v-193q-86 0 -156 26t-120 70.5t-77.5 104t-27.5 127.5q0 71 24.5 127
t74.5 102q-99 99 -99 234q0 67 25.5 127t70.5 104t106.5 70t133.5 26q68 0 132.5 -30.5t130.5 -92.5z" />
    <glyph glyph-name="fongmanthai" unicode="&#xe4f;" horiz-adv-x="2171" 
d="M1987 868q0 -123 -32.5 -237.5t-92 -214.5t-142 -182.5t-183 -142t-215 -92t-237.5 -32.5t-237.5 32.5t-214.5 92t-182.5 142t-142 182.5t-92 214.5t-32.5 237.5t32.5 237.5t92 214.5t142 183t182.5 142t214.5 91.5t237.5 32.5t237.5 -32.5t215 -91.5t183 -142t142 -183
t92 -214.5t32.5 -237.5zM1569 868q0 -98 -38.5 -186t-104.5 -154t-154 -104.5t-187 -38.5q-98 0 -186 38.5t-154 104.5t-104.5 154t-38.5 186t38.5 186t104.5 154t154 105t186 39q66 0 127.5 -17.5t115 -49.5t98 -76.5t76.5 -98.5t49.5 -115.5t17.5 -126.5zM1343 868
q0 54 -20 101t-55 82t-82 55t-101 20t-101 -20t-82 -55t-55 -82t-20 -101t20 -101t55 -82t82 -55t101 -20t101 20t82 55t55 82t20 101zM1753 864q0 92 -24 178t-67.5 160.5t-104.5 136t-135 105.5t-159.5 68t-177.5 24t-177 -24t-159.5 -67.5t-135 -104.5t-104 -135
t-67.5 -159.5t-24 -177.5q0 -138 52.5 -259.5t143 -212t212 -143t259.5 -52.5q93 0 178.5 24t159.5 67.5t134 104t102.5 135t66 159.5t23.5 177z" />
    <glyph glyph-name="zerothai" unicode="&#xe50;" horiz-adv-x="1810" 
d="M1733 770q0 -112 -29.5 -215t-83 -192.5t-129 -163t-167 -126t-196.5 -81.5t-219 -29t-219 29t-196.5 81.5t-166.5 126t-128.5 163t-83 193t-29.5 214.5q0 112 29.5 215t83 193t128.5 163.5t166.5 126t197 81t218.5 28.5q114 0 219 -28.5t196.5 -81t167 -126t129 -163.5
t83 -193t29.5 -215zM1458 770q0 111 -42.5 209t-116.5 172t-174.5 117t-215.5 43t-215 -43t-174.5 -117t-117 -172t-42.5 -209t42.5 -209t117 -172t174.5 -117t215 -43t215.5 43t174.5 117t116.5 172t42.5 209z" />
    <glyph glyph-name="onethai" unicode="&#xe51;" horiz-adv-x="1810" 
d="M1712 770q0 -112 -29.5 -215t-83 -192.5t-128.5 -163t-166.5 -126t-197 -81.5t-218.5 -29q-336 0 -639 291l192 188q60 -57 116 -97t110.5 -66t109 -38t111.5 -12q115 0 215 43t174.5 117t117 172t42.5 209t-42.5 209t-117 172t-174.5 117t-215 43q-86 0 -163.5 -23
t-141.5 -63t-113 -94t-78 -115q-14 -29 -15.5 -50t5.5 -34.5t20.5 -20t30.5 -6.5h271v-266h-279q-82 0 -141 24t-97 64.5t-57 92.5t-22 108t9.5 112t37.5 103q48 94 122 173.5t169 137.5t207 90.5t235 32.5q113 0 218.5 -28.5t197 -81t166.5 -126t128.5 -163.5t83 -193
t29.5 -215z" />
    <glyph glyph-name="twothai" unicode="&#xe52;" horiz-adv-x="2089" 
d="M1942 848q0 -133 -29.5 -249t-84.5 -212.5t-134 -172t-177.5 -127.5t-215.5 -79.5t-248 -27.5q-136 0 -255 30t-217.5 85.5t-176 133t-131 173t-81.5 206.5t-28 232v1061h274v-1061q0 -128 40.5 -236.5t119 -188t193 -124.5t262.5 -45q141 0 255 41t193.5 118.5
t122.5 189.5t43 253q0 30 -0.5 76.5t-5 98.5t-14.5 105t-29 95.5t-49 69t-74 26.5q-59 0 -97 -36t-38 -95v-148h-270v148q0 59 -40.5 95t-111.5 36t-111.5 -44.5t-40.5 -115.5q0 -18 5.5 -37t23 -40t49.5 -45.5t86 -53.5l-205 -201q-66 48 -110 95t-71 93.5t-39 93.5t-13 95
q0 80 28.5 157t83 138t134 98t180.5 37q84 0 156 -30.5t131 -79.5q59 49 131 79.5t155 30.5q101 0 172.5 -37t119.5 -98t75.5 -139t42 -160.5t18 -162.5t3.5 -144z" />
    <glyph glyph-name="threethai" unicode="&#xe53;" horiz-adv-x="2085" 
d="M1991 799q0 -141 -39.5 -270.5t-118 -239.5t-195 -198t-270.5 -148l-127 237q123 45 213 108.5t149.5 142.5t88 172t28.5 196q0 75 -19 145.5t-54.5 132.5t-85.5 113t-111 88l-385 -385l-401 401q-75 -43 -131.5 -102.5t-93.5 -130t-55.5 -149t-18.5 -158.5
q0 -105 30 -199.5t86 -167t135.5 -117.5t178.5 -49q7 0 18.5 2t29 9.5t43 21.5t60.5 37l111 -246q-45 -23 -81.5 -38.5t-67.5 -25.5t-58 -14t-51 -4q-115 3 -211.5 36.5t-174.5 90t-137 132.5t-98.5 163.5t-59.5 182.5t-20 190q0 129 34.5 255.5t109.5 238.5t193 202.5
t286 147.5l344 -340l336 331q136 -54 245.5 -134.5t186 -182.5t117.5 -223t41 -254z" />
    <glyph glyph-name="fourthai" unicode="&#xe54;" horiz-adv-x="1884" 
d="M1774 1417q-35 -45 -86.5 -73.5t-122.5 -28.5h-643q-116 0 -216.5 -43t-175.5 -117t-118 -172t-43 -209t43 -208.5t118 -170t175.5 -115t216.5 -42.5q83 0 161.5 21t149.5 65l-225 221q-49 49 -84.5 100.5t-47 104t5.5 106t72 107.5l127 127l197 -189l-127 -119l672 -659
l-193 -189l-196 193q-112 -74 -242.5 -115t-269.5 -41q-114 0 -219 29t-196.5 81t-167 125.5t-129 163t-83 192t-29.5 212.5q0 112 29.5 215t83 193t129 163.5t167 126t196.5 81t219 28.5h630q3 0 8.5 2.5t8.5 5.5l229 303l225 -151z" />
    <glyph glyph-name="fivethai" unicode="&#xe55;" horiz-adv-x="1884" 
d="M1774 1421q-35 -45 -86.5 -71.5t-122.5 -26.5h-647q-116 0 -216 -43t-174 -117t-116.5 -172t-42.5 -209t43 -209t118 -171.5t175.5 -116.5t216.5 -43q83 0 161.5 22.5t149.5 63.5l-225 221q-49 49 -84.5 100.5t-47 104t5.5 106t72 107.5l127 127l197 -189l-127 -119
l672 -663l-193 -189l-196 201q-229 -160 -512 -160q-114 0 -219 29t-196.5 81.5t-167 126t-129 163t-83 193t-29.5 214.5q0 140 45 265t126 227t192.5 176t243.5 111q-13 35 -13 77q0 72 28.5 133t76.5 105.5t111 69t132 24.5q68 0 130 -24t109.5 -68t76 -105t28.5 -135
q0 -15 -0.5 -27t-3.5 -22h168q6 0 12 2.5t9 5.5l229 304l225 -152zM1176 1638q0 29 -10.5 54t-28.5 43t-43 28.5t-54 10.5t-54.5 -10.5t-44 -28.5t-29.5 -43t-11 -54t11 -53t29.5 -41.5t44 -27t54.5 -9.5t54 9.5t43 27t28.5 41.5t10.5 53z" />
    <glyph glyph-name="sixthai" unicode="&#xe56;" horiz-adv-x="1782" 
d="M1692 791q0 -111 -29 -214.5t-82.5 -194t-128.5 -165.5t-166.5 -129t-197 -83.5t-220.5 -29.5q-109 0 -206 26.5t-180 72.5t-150.5 107t-118.5 130q-52 69 -70.5 129t-12.5 113.5t33 102.5t66 94.5t85.5 90l91.5 89.5l192 -189q-13 -13 -36.5 -30.5l-49 -37.5
t-49.5 -43.5t-39 -49t-16.5 -53t18.5 -56.5q35 -49 83.5 -90.5t105.5 -71.5t121 -46.5t132 -16.5q115 0 216 43t176 117.5t118 173.5t43 211q0 78 -22 150.5t-61.5 135.5t-94.5 114.5t-121 86.5l-352 -356l-655 651l192 188l463 -463l287 287q143 -41 260 -119t200.5 -182.5
t129 -230.5t45.5 -262z" />
    <glyph glyph-name="seventhai" unicode="&#xe57;" horiz-adv-x="2109" 
d="M1991 807q0 -141 -39.5 -270t-118 -239.5t-195 -198.5t-270.5 -148l-127 237q123 45 213 108.5t149.5 142.5t88 172t28.5 196q0 72 -17.5 141t-51.5 131t-84.5 116t-116.5 95l-385 -389l-401 402q-75 -42 -131.5 -101t-93.5 -129.5t-55.5 -148.5t-18.5 -158
q0 -106 30 -201t86 -167t135.5 -116t178.5 -49q6 0 17 2.5t29 10t44 21t61 36.5l111 -250q-45 -23 -81.5 -38.5t-68 -25t-59 -13t-53.5 -1.5q-115 3 -211.5 37t-174.5 90.5t-137 131.5t-98.5 162t-59.5 181.5t-20 188.5q0 127 35 254.5t111 240t194.5 204.5t286.5 149
l344 -344l336 336q49 -20 95.5 -41t87.5 -46.5t75.5 -57t60.5 -72.5v512h271v-1094z" />
    <glyph glyph-name="eightthai" unicode="&#xe58;" horiz-adv-x="2122" 
d="M1933 1421q-35 -45 -88 -73.5t-125 -28.5h-774q-120 0 -225 -44t-183 -120.5t-123.5 -179.5t-45.5 -221q0 -80 21 -153.5t60 -137.5t93.5 -116t120.5 -89l401 393l418 -409q55 10 103 39t83 70t55.5 93t20.5 109q0 66 -26.5 124t-78 101.5t-127 68.5t-174.5 25v267
q154 0 278.5 -45.5t213 -124.5t136.5 -186t48 -230q0 -120 -47 -226t-131 -185t-198.5 -125t-249.5 -46l-324 316l-344 -336q-143 48 -259 127t-197.5 182.5t-126 228.5t-44.5 265q0 114 30.5 220.5t86 198.5t133 168t172 130t203.5 84t227 30h766q6 0 12 12l234 304
l225 -152z" />
    <glyph glyph-name="ninethai" unicode="&#xe59;" horiz-adv-x="2154" 
d="M2212 1761q-25 -38 -52.5 -85t-59 -95.5t-67 -95t-75 -83.5t-83.5 -60.5t-93 -26.5q-54 -3 -92.5 -1.5t-68 1.5t-53.5 -4.5t-48.5 -19.5t-53.5 -43.5t-69 -76.5l700 -1085l-221 -135l-848 1311q-22 27 -58 42t-85 15q-62 0 -123.5 -19.5t-117.5 -55t-105 -85.5t-85 -110
t-56.5 -128.5t-20.5 -142.5q0 -112 42.5 -210t116.5 -170.5t174 -114t216 -41.5q29 0 58 2t62 9.5t72 21t90 36.5l123 -237q-66 -29 -121 -49t-103.5 -32t-92.5 -17t-88 -5q-114 0 -219 29t-196.5 81.5t-167 126t-129 163t-83 193t-29.5 214.5t29.5 213.5t82.5 192.5
t126 163.5t160 126.5t185 82t200 29q55 0 108.5 -11.5t101.5 -35t88.5 -58.5t69.5 -83q66 70 119.5 106.5t108 52t119 16.5t153.5 1q31 0 61 28.5t60.5 73.5t61.5 100l63 109z" />
    <glyph glyph-name="angkhankhuthai" unicode="&#xe5a;" horiz-adv-x="2281" 
d="M1241 0v1237q-179 -135 -414 -135q-143 0 -268.5 53.5t-218.5 151t-147 234t-54 302.5h271q0 -112 33 -201t89.5 -150.5t132.5 -94.5t162 -33t161.5 33t131.5 94.5t88.5 150.5t32.5 201h275v-1843h-275zM2118 1843v-1843h-275v1843h275z" />
    <glyph glyph-name="khomutthai" unicode="&#xe5b;" horiz-adv-x="4121" 
d="M3162 815l-54.5 -92.5l-64.5 -106.5l-62.5 -99t-47.5 -71q-9 21 -31 62l-50.5 91.5l-61 105l-61.5 103.5l-52.5 87l-34.5 55q-8 -22 -30.5 -64.5l-54 -98l-68.5 -118l-74.5 -123l-72 -114.5t-61.5 -92q-14 31 -41 81l-61 109l-71 121.5l-71 118.5l-63 101t-45 67
q-13 -99 -51 -195.5t-96.5 -183t-136 -159.5t-170 -126.5t-198 -83.5t-220.5 -30q-209 0 -371 56t-272.5 158.5t-168 246.5t-57.5 321q0 119 26.5 218.5t72.5 179.5t108 140.5t134 101t150.5 61t156.5 20.5q73 0 143 -15.5t131 -47.5t110 -80t81 -113t44 -146.5t-2 -179.5
l-237 -20q14 84 -4.5 149.5t-58.5 110.5t-96.5 68.5t-119.5 23.5q-66 0 -133 -28t-121 -86t-88 -147t-34 -210q0 -143 48 -244.5t130 -166.5t191.5 -95t232.5 -30q110 0 209.5 41.5t180 111.5t139 162.5t88 194.5t25.5 207t-48 200l180 123q33 -30 77 -79.5t92 -110l97 -126
l92 -127t76 -114t49 -86.5q7 10 21.5 39.5l32.5 69l37.5 84.5l36.5 86l30 74t18 48l176 103q11 -11 35 -42l54 -72l63 -87l61.5 -88.5l49.5 -76t28 -48.5q1 1 6.5 11t15.5 31l25.5 53.5l38.5 80.5h873v-254h-750z" />
    <glyph glyph-name="saraulowthai" unicode="&#xf718;" 
d="M-422 -1405v328h-164v258h279q31 0 57 -11t45 -30.5t30 -45.5t11 -57v-442h-258z" />
    <glyph glyph-name="sarauulowthai" unicode="&#xf719;" 
d="M-164 -1102q0 -74 -28 -138.5t-76 -113t-112 -76.5t-136 -28q-74 0 -139 28t-113 76t-76 112t-28 136v29h-164v258h422v-283q0 -40 23.5 -69t70.5 -29q46 0 72 29t26 69v283h258v-283z" />
    <glyph glyph-name="phinthulowthai" unicode="&#xf71a;" 
d="M-119 -975q0 -38 -14.5 -71t-39 -57t-57 -38t-69.5 -14t-69.5 13.5t-57 37.5t-39 56t-14.5 69q0 38 14.5 71t39 57t57 38t69.5 14t69.5 -13.5t57 -37.5t39 -56t14.5 -69z" />
    <glyph glyph-name="rulakkhangyao" unicode="&#xf881;" horiz-adv-x="2658" 
d="M2527 -696h-270v1855q0 106 -26 190t-78.5 142t-130.5 88.5t-183 30.5q-77 0 -141 -18t-117 -52q74 -99 115 -221t41 -258v-1761h-271l-4 1761q0 120 -43.5 219.5t-122 171t-187 111t-237.5 39.5q-68 0 -133.5 -17.5t-126.5 -48.5t-114.5 -73t-96.5 -91l123 -135l4 -975
h267v-266h-541v1151l-188 209q66 115 153.5 209.5t191 161.5t220.5 104t241 37q149 0 276.5 -36t235.5 -108q90 72 205 108t254 36q118 0 214.5 -25t172.5 -70t132 -107.5t92.5 -137t54.5 -159t18 -173.5v-1892z" />
    <glyph glyph-name="lulakkhangyao" unicode="&#xf882;" horiz-adv-x="2658" 
d="M2527 -696h-270v1855q0 106 -26 190t-78.5 142t-130.5 88.5t-183 30.5q-77 0 -141 -18t-117 -52q74 -99 115 -221t41 -258v-1761h-275v1761q0 121 -43.5 220.5t-122 171t-187 110.5t-237.5 39q-68 0 -133.5 -17t-125.5 -47t-113 -71.5t-94 -90.5l122 -135v-1245h-450v266
h176v885l-188 209q66 117 153.5 211.5t191 161t220.5 103t241 36.5q152 0 278 -36t234 -108q90 72 205 108t254 36q118 0 214.5 -25t172.5 -70t132 -107.5t92.5 -137t54.5 -159t18 -173.5v-1892z" />
    <glyph glyph-name="lochula.short" unicode="&#xf71d;" horiz-adv-x="2159" 
d="M1995 1958q0 -89 -20.5 -159t-78.5 -116q58 -65 78.5 -140.5t20.5 -170.5v-880q0 -106 -41 -198.5t-112.5 -161.5t-168 -108.5t-207.5 -39.5q-114 0 -214 45t-175 123q-71 -78 -169.5 -123t-219.5 -45q-108 0 -203 39.5t-166.5 108.5t-113 161.5t-41.5 198.5v1351h274
v-1351q0 -50 19 -94t52.5 -77t79 -52t99.5 -19t100 19.5t80.5 52.5t54 78t19.5 96v811h275v-815q0 -51 19 -95t52 -77t78.5 -51.5t99.5 -18.5t100.5 19t80.5 52t53.5 77t19.5 94v876q0 63 -14.5 106.5t-40.5 71t-62 39.5t-79 12h-230v246h242q60 0 97 5.5t57.5 25.5t28.5 59
t10 107h266v-82z" />
    <glyph glyph-name="uni25CC" unicode="&#x25cc;" horiz-adv-x="2744" 
d="M1061 733l-197 -61l70 192q28 -40 59 -71.5t68 -59.5zM1278 1692l94 184l90 -180q-21 3 -42.5 3.5t-43.5 0.5q-25 0 -49 -2.5t-49 -5.5zM1454 639l-82 -172l-86 172q22 -3 45.5 -5.5t44.5 -2.5q22 0 41 2.5t37 5.5zM1905 1257l172 -90l-172 -77q3 18 5.5 37t2.5 40
q0 22 -2.5 45.5t-5.5 44.5zM852 1081l-184 95l184 90q-3 -25 -5.5 -49.5t-2.5 -49.5q0 -21 2.5 -42.5t5.5 -43.5zM946 1487l-53 188l184 -65q-40 -25 -71.5 -55.5t-59.5 -67.5zM1802 840l49 -168l-168 53q35 25 64.5 53t54.5 62zM1679 1610l201 65l-70 -192q-27 37 -58.5 68
t-72.5 59z" />
    <glyph glyph-name="yamakkanleftthai" 
d="M-618 2785q-38 37 -64.5 51.5t-54.5 14.5q-29 0 -54.5 -10.5t-44.5 -28.5t-30 -42.5t-11 -53.5q0 -59 45 -97.5t140 -38.5v-192q-48 0 -82.5 -10t-57.5 -28t-34 -43t-11 -54q0 -59 45 -97t140 -38v-193q-86 0 -156.5 26t-120.5 70.5t-77 104t-27 127.5q0 71 24.5 127
t73.5 102q-98 100 -98 234q0 67 25.5 127t70.5 104t106.5 70t133.5 26q133 0 262 -123z" />
    <glyph glyph-name="copyright" unicode="&#xa9;" horiz-adv-x="2294" 
d="M1655 573q-109 -86 -224 -135t-239 -49q-95 0 -180.5 24.5t-158.5 69t-131.5 107t-99.5 138.5t-63 163.5t-22 181.5t22.5 181t64.5 162.5t101 137.5t132.5 106.5t159 68.5t179.5 24q127 0 240.5 -45t218.5 -135l-152 -189q-48 42 -88.5 68.5t-78 41.5t-72.5 20.5t-72 5.5
q-88 0 -164 -35.5t-132.5 -96t-89 -142t-32.5 -173.5q0 -91 33 -172.5t89.5 -143t132 -98t159.5 -36.5q35 0 70.5 6t73.5 22t80 42.5t91 68.5zM2273 1085q0 -157 -40 -301.5t-113.5 -270t-176 -228.5t-227 -176.5t-268 -113.5t-297.5 -40q-157 0 -301.5 40t-270.5 113.5
t-229 176.5t-176.5 228.5t-113.5 270.5t-40 301q0 155 40 298t113.5 268t176.5 227.5t229 176t270.5 113.5t301.5 40q154 0 297.5 -40t268 -113.5t227 -176t176 -227.5t113.5 -268t40 -298zM2040 1085q0 123 -32 236.5t-89.5 212.5t-139 180t-180 139t-212 89.5t-236.5 31.5
q-126 0 -241.5 -31.5t-215 -89.5t-181 -139t-139 -180t-89 -212.5t-31.5 -236.5q0 -126 31.5 -241t89 -215t139 -181t181 -139t215 -89.5t241.5 -31.5q123 0 236.5 31.5t212 89.5t180 139t139 181t89.5 215t32 241z" />
    <glyph glyph-name="registered" unicode="&#xae;" horiz-adv-x="2339" 
d="M2331 1085q0 -159 -41.5 -306t-117 -275.5t-181.5 -234t-235 -181t-277 -117t-308 -41.5q-161 0 -310 41t-278.5 116.5t-236 180.5t-182.5 233.5t-118 276t-42 307.5q0 159 42 305.5t118 274t182.5 232t236 179t278.5 115.5t310 41q160 0 308 -41t277 -115.5t235 -179
t181.5 -232t117 -274t41.5 -305.5zM2097 1077q0 128 -33 246t-93.5 220.5t-144.5 186.5t-187 144t-221.5 92.5t-246.5 32.5q-130 0 -249.5 -32.5t-223.5 -91.5t-188.5 -142.5t-145 -185t-93.5 -218.5t-33 -244q0 -128 33 -246t93.5 -220.5t145 -186t188.5 -143.5
t223.5 -92.5t249.5 -32.5q128 0 246.5 32.5t221.5 92t187 143t144.5 185t93.5 218t33 242.5zM1483 430l-336 537h-209v-537h-238v1278h578q129 0 220 -25t148.5 -72t84 -115.5t26.5 -156.5q0 -87 -26.5 -151.5t-73.5 -109t-110.5 -71t-137.5 -36.5l360 -541h-286zM1528 1343
q0 49 -26.5 76t-67.5 39.5t-91 14.5t-98 2h-311v-279h254h106t107 12q62 16 94.5 45t32.5 90z" />
    <glyph glyph-name="trademark" unicode="&#x2122;" horiz-adv-x="2351" 
d="M2101 877l-168 872l-340 -868h-82l-344 872l-172 -876h-168l254 1286h99l368 -942l373 942h94l254 -1286h-168zM598 1999v-1102h-168v1102h-295v168h758v-168h-295z" />
    <glyph glyph-name="multiply" unicode="&#xd7;" horiz-adv-x="1556" 
d="M1286 82l-508 508l-508 -508l-188 188l508 508l-508 508l188 189l508 -508l508 508l189 -189l-508 -508l508 -508z" />
    <glyph glyph-name="divide" unicode="&#xf7;" horiz-adv-x="1556" 
d="M979 1253q0 -41 -16 -77.5t-43 -63.5t-63.5 -43t-78.5 -16q-41 0 -77.5 16t-63.5 43t-43 63.5t-16 77.5q0 42 16 78.5t43 63.5t63.5 43t77.5 16q42 0 78.5 -16t63.5 -43t43 -63.5t16 -78.5zM74 647v262h1409v-262h-1409zM979 303q0 -41 -16 -77.5t-43 -64t-63.5 -43.5
t-78.5 -16q-41 0 -77.5 16t-63.5 43.5t-43 64t-16 77.5q0 42 16 78.5t43 63.5t63.5 43t77.5 16q42 0 78.5 -16t63.5 -43t43 -63.5t16 -78.5z" />
    <glyph glyph-name="ZWSP" unicode="&#x200b;" 
 />
    <glyph glyph-name="yoyingthai" unicode="&#xe0d;" horiz-adv-x="3031" 
d="M2867 25q0 -94 -25 -182t-71 -165t-110.5 -141t-144 -109.5t-172.5 -70.5t-194 -25q-213 0 -375.5 104t-283.5 314l233 144q84 -149 188.5 -222t237.5 -73q92 0 172 33.5t139.5 91.5t93.5 135.5t34 165.5v102q-90 -77 -193.5 -116.5t-224.5 -39.5q-98 0 -188.5 24
t-168 68t-141 106t-109 137t-70 161.5t-24.5 179.5v418q0 121 -44 221t-123.5 171t-190 110t-244.5 39q-69 0 -136.5 -17.5t-129 -48.5t-116 -73t-97.5 -91l127 -131v-979h270v-266h-548v1151l-193 205q67 117 156 212t194 162.5t224.5 104.5t248.5 37q195 0 357.5 -60.5
t278.5 -168.5t180.5 -256.5t64.5 -325.5v-418q0 -84 32 -158t88.5 -129t133.5 -86.5t168 -31.5t167.5 30t132 84t87 129.5t31.5 165.5v1196h278v-1818z" />
    <glyph glyph-name="sterling" unicode="&#xa3;" horiz-adv-x="1647" 
d="M1282 1384q-2 127 -35.5 225t-90.5 165t-133.5 101t-162.5 34q-84 0 -153.5 -33t-119 -92t-77 -140t-27.5 -178v-299h410v-266h-414v-639l1008 4v-270h-1417v266h131v639h-131v266h131v299q0 148 46.5 280t132.5 232t208 158.5t272 58.5q146 0 274.5 -59t224 -166.5
t151 -256.5t55.5 -329h-283z" />
    <glyph glyph-name="yen" unicode="&#xa5;" horiz-adv-x="1737" 
d="M1315 1425h287v-258h-435l-102 -168h532v-258h-581v-741h-291v741h-573v258h524q-8 11 -16 25l-19.5 33.5l-26.5 46l-36 63.5h-426v258h278l-426 738h324l540 -942l545 942h324z" />
    <glyph glyph-name="cent" unicode="&#xa2;" horiz-adv-x="1864" 
d="M1511 598q-96 -84 -194.5 -136.5t-206.5 -68.5v-209h-246v217q-121 25 -220 88t-169 155t-108.5 207.5t-38.5 246.5q0 129 39.5 244t110.5 206.5t169.5 154t216.5 87.5v217h246v-205q206 -30 406 -196l-152 -217l-75.5 61t-63.5 44.5t-58 30t-57 19.5v-897q26 8 53.5 21
t58 32.5t65.5 46.5t77 64zM864 1528q-63 -23 -115 -66t-89 -100t-57.5 -124.5t-20.5 -139.5t21 -140t58.5 -125t89 -101t113.5 -68v864z" />
    <glyph glyph-name="Euro" unicode="&#x20ac;" horiz-adv-x="2277" 
d="M2114 209q-92 -68 -177.5 -113.5t-169.5 -73t-170 -39.5t-180 -12q-117 0 -228.5 24.5t-214.5 70t-195 110.5t-169.5 146t-138.5 176.5t-102 201.5h-283v258h221q-6 57 -9 109.5t5 103.5h-217v259h270q58 166 163 305.5t244 240.5t306.5 158t351.5 57q86 0 171 -12
t171 -39.5t173 -74t178 -115.5l-152 -226q-81 61 -154.5 99t-141 59t-130.5 28t-123 7q-123 0 -235 -36.5t-207.5 -101.5t-171.5 -154t-127 -195h745v-259h-823q-7 -57 -6.5 -108t6.5 -105h823v-258h-733q54 -98 130.5 -182t171 -145.5t202.5 -96t225 -34.5q60 0 123 7.5
t130.5 29t141 59.5t154.5 100z" />
    <glyph glyph-name="onequarter" unicode="&#xbc;" horiz-adv-x="2220" 
d="M1974 -4h-213v205h-585v98l679 971h119v-864h140v-205h-140v-205zM266 0l1528 2159h254l-1524 -2159h-258zM385 1958h-213v205h422v-1250h-209v1045zM1503 406h258v376z" />
    <glyph glyph-name="onehalf" unicode="&#xbd;" horiz-adv-x="2220" 
d="M1929 872q0 42 -15 76.5t-41.5 59.5t-62.5 39t-77 14q-42 0 -78 -14t-62.5 -45t-41.5 -81t-15 -122h-213q0 118 36 206t94 146t131.5 86.5t148.5 28.5q86 0 160.5 -30t130 -83t87 -126t31.5 -159q0 -66 -20.5 -123t-53 -107.5t-73.5 -96.5l-82 -90l-230 -250h455v-201
h-770v164l111 116l114 123.5l111 123.5l102 116q23 25 45 53t39.5 57.5t28 59.5t10.5 59zM188 0l1528 2163h250l-1524 -2163h-254zM385 1962h-209v201h418v-1250h-209v1049z" />
    <glyph glyph-name="threequarters" unicode="&#xbe;" horiz-adv-x="2220" 
d="M348 0l1528 2163h250l-1520 -2163h-258zM1974 0h-213v205h-585v98l684 975l114 -4v-868h140v-201h-140v-205zM537 905q-75 0 -144 25t-122 77t-85.5 131.5t-33.5 188.5h204q8 -63 24 -106t39 -69.5t52.5 -38t65.5 -11.5q38 0 72.5 15.5t60 42t40.5 61.5t15 73
q0 37 -14 68t-44 53.5t-78.5 35.5t-117.5 15v197q66 4 111.5 18t73.5 35.5t40.5 50.5t12.5 64q0 32 -12.5 59.5t-33.5 48t-49.5 32t-60.5 11.5q-31 0 -56.5 -9.5t-45 -34t-32.5 -65.5t-18 -104h-213q38 414 369 414q75 0 141.5 -27.5t116 -75.5t78.5 -113t29 -140
q0 -152 -115 -254q65 -53 98 -122t33 -153t-30.5 -156t-84 -124.5t-127 -82.5t-159.5 -30zM1503 406h258v380z" />
    <glyph glyph-name="saraamleft" horiz-adv-x="1393" 
d="M1229 0h-275v1167q0 212 -104.5 327.5t-312.5 115.5q-51 0 -96.5 -7t-88.5 -25t-85 -49t-87 -79l-188 188q63 61 127 105t131.5 71.5t140.5 40.5t154 13q177 0 306 -53.5t213 -145t124.5 -213t40.5 -256.5v-1200zM-635 2355q0 -60 -23 -113t-63 -92.5t-94 -62.5t-115 -23
q-60 0 -113.5 23t-94 62.5t-64 92.5t-23.5 113q0 61 23.5 115t64 94t94 63t113.5 23q61 0 115 -23t94 -63t63 -94t23 -115zM-831 2355q0 20 -8 37t-21.5 30t-31.5 20t-38 7q-40 0 -67 -27t-27 -67q0 -20 7 -37.5t20 -31t30 -21.5t37 -8t38 8t31.5 21.5t21.5 31t8 37.5z" />
    <glyph glyph-name="uni0E33.alt1" horiz-adv-x="1393" 
d="M1229 0h-275v1167q0 212 -104.5 327.5t-312.5 115.5q-51 0 -96.5 -7t-88.5 -25t-85 -49t-87 -79l-188 188q63 61 127 105t131.5 71.5t140.5 40.5t154 13q177 0 306 -53.5t213 -145t124.5 -213t40.5 -256.5v-1200zM-635 2355q0 -60 -23 -113t-63 -92.5t-94 -62.5t-115 -23
q-60 0 -113.5 23t-94 62.5t-64 92.5t-23.5 113q0 61 23.5 115t64 94t94 63t113.5 23q61 0 115 -23t94 -63t63 -94t23 -115zM-831 2355q0 20 -8 37t-21.5 30t-31.5 20t-38 7q-40 0 -67 -27t-27 -67q0 -20 7 -37.5t20 -31t30 -21.5t37 -8t38 8t31.5 21.5t21.5 31t8 37.5z" />
    <glyph glyph-name="guillemotleft" unicode="&#xab;" horiz-adv-x="1274" 
d="M885 918l340 -410l-172 -172l-488 582l488 581l172 -172zM545 336l-492 582l492 581l180 -172l-344 -409l344 -410z" />
    <glyph glyph-name="guillemotright" unicode="&#xbb;" horiz-adv-x="1274" 
d="M737 336l-180 172l340 410l-340 409l180 172l488 -581zM229 336l-176 172l340 410l-340 409l176 172l488 -581z" />
    <glyph glyph-name="thothannobasethai" unicode="&#xf700;" horiz-adv-x="1683" 
d="M1368 1585q71 -96 111.5 -204.5t40.5 -229.5q0 -62 -12 -123t-33 -123l-340 -905h-287l-410 1167h287l270 -778l222 602q14 39 21 79.5t7 80.5q0 92 -36 173.5t-98.5 142t-147 95.5t-181.5 35q-86 0 -162.5 -29t-136.5 -84.5t-100.5 -136.5t-54.5 -184h-275
q17 160 79.5 289.5t159 221t222 141t268.5 49.5q109 0 199 -26t174 -73l221 250l213 -180z" />
    <glyph glyph-name="exclam" unicode="!" horiz-adv-x="840" 
d="M578 1307l-54 -811h-217l-45 811v856h316v-856zM618 176q0 -41 -16 -77t-43 -62.5t-63.5 -41.5t-77.5 -15q-42 0 -78.5 15t-63.5 41.5t-43 62.5t-16 77q0 43 15 80.5t42 65t64 43.5t80 16t79.5 -16t63.5 -43.5t42 -65t15 -80.5z" />
    <glyph glyph-name="quotedbl" unicode="&#x22;" horiz-adv-x="823" 
d="M700 1442h-196l-33 737h262zM311 1442h-188l-33 737h262z" />
    <glyph glyph-name="numbersign" unicode="#" horiz-adv-x="1733" 
d="M1298 1196l-53 -348h303v-254h-344l-98 -590h-250l94 590h-266l-90 -590h-250l82 590h-307v254h344l49 348h-319v254h352l86 549h262l-86 -549h270l82 549h262l-82 -549h275v-254h-316zM766 1196l-49 -348h274l45 348h-270z" />
    <glyph glyph-name="dollar" unicode="$" horiz-adv-x="1692" 
d="M1524 635q0 -115 -39 -217.5t-106.5 -185.5t-158.5 -144.5t-196 -95.5v-340h-279v328q-104 13 -192 52t-162 106t-135.5 162.5t-112.5 223.5l258 111q64 -172 150.5 -261.5t193.5 -111.5v791q-90 41 -174.5 89.5t-149 112.5t-103.5 148.5t-39 198.5q0 112 33.5 207.5
t95 170t147.5 125.5t190 74v315h279v-327q60 -17 116 -44t109 -68.5t103 -99.5t98 -136l-221 -177q-59 93 -109 151t-96 83v-647l128 -65.5t118.5 -70t102 -81.5t80 -99t52.5 -123.5t19 -154.5zM745 1888q-41 -17 -75 -45.5t-58 -65t-37.5 -80t-13.5 -91.5q0 -43 14.5 -77
t39.5 -62t58.5 -52t71.5 -47v520zM1241 647q0 43 -15.5 79t-44 68t-68.5 61t-89 58v-618q49 29 89 67t68.5 83t44 96t15.5 106z" />
    <glyph glyph-name="percent" unicode="%" horiz-adv-x="2023" 
d="M1004 1708q0 -100 -38 -185.5t-103.5 -148t-153 -98t-185.5 -35.5t-185.5 35.5t-152.5 98t-103 148t-38 185.5q0 105 37.5 192t102.5 150t152 98t187 35t187.5 -35t152.5 -98t102.5 -150t37.5 -192zM487 -78l-213 131l1250 2179l229 -106zM1974 451q0 -103 -38 -189
t-103.5 -147.5t-152.5 -96t-185 -34.5t-186 34.5t-154 96t-104.5 147.5t-38.5 189t38.5 189.5t104.5 149t154 97.5t186 35t185 -35t152.5 -97.5t103.5 -149t38 -189.5zM737 1708q0 43 -16.5 81t-45.5 66.5t-67.5 45t-83.5 16.5q-43 0 -81 -16t-66.5 -44t-45 -66t-16.5 -83
q0 -42 16.5 -79t45 -65t66.5 -44.5t81 -16.5t81.5 16.5t68 44.5t46.5 65t17 79zM1708 451q0 44 -17 82t-46.5 66t-68 44t-81.5 16q-45 0 -83.5 -16t-67.5 -44t-45.5 -66t-16.5 -82q0 -43 16.5 -80.5t45.5 -65t67.5 -43.5t83.5 -16q43 0 81.5 16t68 43.5t46.5 65t17 80.5z
" />
    <glyph glyph-name="ampersand" unicode="&#x26;" horiz-adv-x="2134" 
d="M1847 -8l-315 356q-74 -74 -155.5 -142t-169.5 -122.5t-181 -90t-190 -42.5q-125 -12 -237 26.5t-199 114.5t-143.5 182.5t-68.5 229.5q-8 90 8.5 170.5t51.5 153t85 137.5t108.5 124.5t122.5 113.5l128 104q-41 43 -78.5 88.5t-67 95t-48.5 103.5t-23 114
q-8 95 22.5 183t89 156.5t139.5 112.5t175 52q98 7 182.5 -23t148 -87t102 -136t46.5 -168q8 -92 -14 -168.5t-64 -142t-99 -123t-118 -111.5l443 -499l229 266l225 -168l-266 -307l471 -545zM1098 1774q-5 37 -20.5 67.5t-39 52.5t-54.5 33.5t-66 9.5q-33 -5 -63 -23.5
t-52 -48t-34 -66.5t-7 -79q4 -35 18.5 -69t34.5 -65.5t43.5 -60.5l46.5 -55l71.5 63t65 68.5t44.5 79t12 93.5zM877 1085l-88.5 -69t-94 -76.5t-89.5 -85t-74.5 -94t-48 -104.5t-11.5 -115q8 -72 37.5 -133.5t74.5 -105t103.5 -65.5t124.5 -16q67 6 134.5 36.5t134 77
t131.5 105t128 121.5z" />
    <glyph glyph-name="quotesingle" unicode="'" horiz-adv-x="582" 
d="M381 1442h-188l-33 737h262z" />
    <glyph glyph-name="parenleft" unicode="(" horiz-adv-x="840" 
d="M770 2208q-97 -143 -172.5 -297.5t-127 -317t-78.5 -332.5t-27 -343q0 -123 9.5 -232t30 -212.5t52 -204.5t74.5 -208t98.5 -224l124.5 -251l-267 -8q-98 158 -174.5 324t-128.5 336t-79 343t-27 345q0 170 29 335.5t82 326t129 317.5t169 311z" />
    <glyph glyph-name="parenright" unicode=")" horiz-adv-x="840" 
d="M762 926q0 -160 -26.5 -336t-78 -352t-127.5 -345t-174 -315h-270l124 247.5t99.5 225t75.5 212.5t53 209t31 215t10 231q0 173 -29 344t-82 335.5t-127.5 320t-166.5 298.5h282q92 -154 167 -312t128 -319.5t82 -326.5t29 -332z" />
    <glyph glyph-name="asterisk" unicode="*" horiz-adv-x="1442" 
d="M926 1565l241 -320l-221 -172l-217 316q-14 -20 -22 -30l-15.5 -20l-19 -24.5l-32.5 -42.5l-55.5 -74.5l-88.5 -120.5l-217 168l241 320l-381 114l90 263l369 -127l-16 397h278l-12 -397l369 127l90 -263z" />
    <glyph glyph-name="plus" unicode="+" horiz-adv-x="1597" 
d="M930 647v-594h-258v594h-598v258h594v598h258v-598h598v-258h-594z" />
    <glyph glyph-name="comma" unicode="," horiz-adv-x="606" 
d="M537 119q0 -57 -21 -117t-63 -120t-106 -118t-150 -112l-140 139q42 26 73.5 49.5t56 46t43.5 44t36 44.5q-35 5 -66.5 22t-55 42.5t-37 58.5t-13.5 70q0 42 16 79t44 65t66 44.5t83 16.5q60 0 104 -23t73 -59.5t43 -81.5t14 -90z" />
    <glyph glyph-name="hyphen" unicode="-" horiz-adv-x="1090" 
d="M106 651v258h881v-258h-881z" />
    <glyph glyph-name="period" unicode="." horiz-adv-x="606" 
d="M504 168q0 -43 -16 -80t-43 -64t-63.5 -42t-78.5 -15q-41 0 -77.5 15t-64 41.5t-43.5 62.5t-16 78q0 43 16 80t43.5 64t64 42t77.5 15q42 0 78.5 -15t63.5 -41.5t43 -62.5t16 -78z" />
    <glyph glyph-name="slash" unicode="/" horiz-adv-x="2015" 
d="M425 -263h-295l1471 2671h283z" />
    <glyph glyph-name="zero" unicode="0" horiz-adv-x="1679" 
d="M1610 1094q0 -139 -21.5 -276.5t-64 -262t-107 -231.5t-149.5 -185.5t-191 -123t-233 -44.5q-126 0 -231.5 44.5t-191 123t-149.5 185.5t-107.5 231.5t-65 262t-21.5 276.5q0 140 21.5 276t65 258t107.5 225t149.5 178t191 117.5t231.5 42.5q124 0 228.5 -42.5
t190 -117.5t150.5 -178t108.5 -225t66 -258t22.5 -276zM1315 1094q0 107 -16 210t-45.5 194.5t-71.5 168.5t-94 132.5t-114 86.5t-130 31q-70 0 -132 -31t-115 -86.5t-95 -132.5t-71.5 -168.5t-45.5 -194.5t-16 -210q0 -180 35 -335.5t98 -270.5t150 -180.5t192 -65.5
q103 0 189.5 65.5t149 180.5t97.5 270.5t35 335.5z" />
    <glyph glyph-name="one" unicode="1" horiz-adv-x="1679" 
d="M754 -4v1888h-389v279h671v-2167h-282z" />
    <glyph glyph-name="two" unicode="2" horiz-adv-x="1679" 
d="M1524 1524q0 -109 -37.5 -211.5t-96 -195t-129 -174t-135.5 -148.5l-512 -529h902v-266h-1348v209l729 745q41 41 82.5 87t79.5 95t71.5 99.5t58 101t38.5 100t14 95.5q0 81 -31.5 152t-85 123.5t-125 83t-151.5 30.5q-84 0 -156 -29.5t-124.5 -89t-82.5 -149.5t-30 -211
h-287q3 127 31 232t75 188t111 145t138.5 103t157 61t167.5 20q140 0 263 -50.5t215 -140t145 -211.5t53 -265z" />
    <glyph glyph-name="three" unicode="3" horiz-adv-x="1679" 
d="M1495 639q0 -141 -45.5 -263t-130.5 -212t-207.5 -141.5t-275.5 -51.5q-82 0 -161.5 19t-151 57t-132 94.5t-104.5 132t-69 169t-25 204.5h274q4 -100 31.5 -175.5t75 -126.5t112.5 -77t145 -26q85 0 153.5 30.5t117.5 83t75.5 123.5t26.5 152q0 72 -24 133.5t-72 108
t-120 77t-169 41.5v258q92 11 159.5 42t111.5 77.5t65 106t21 127.5q0 72 -24.5 130t-67.5 99.5t-100.5 63.5t-123.5 22t-123.5 -21t-100 -67t-67 -119.5t-24.5 -177.5h-287q0 164 44.5 287.5t125 206t191.5 124t245 41.5q123 0 232 -43t190 -121.5t128.5 -188t47.5 -241.5
q0 -142 -57.5 -258t-171.5 -209q63 -44 112 -99.5t82 -118.5t50.5 -132t17.5 -141z" />
    <glyph glyph-name="four" unicode="4" horiz-adv-x="1679" 
d="M1356 381v-381h-287v381h-999v233l1056 1549h230v-1504h241v-278h-241zM1069 1593l-647 -934h647v934z" />
    <glyph glyph-name="five" unicode="5" horiz-adv-x="1679" 
d="M1581 758q0 -115 -28.5 -218t-80.5 -191t-124.5 -158.5t-161.5 -120.5t-191 -76.5t-213 -26.5q-98 0 -195 26t-187 81t-171 140t-147 204l254 114q51 -80 105 -135t111 -89.5t115.5 -50t118.5 -15.5q108 0 200.5 38.5t161 107.5t107.5 164.5t39 209.5q0 103 -40 191
t-108.5 153t-159 102t-191.5 37q-57 0 -114.5 -12t-120 -35.5t-131 -57.5t-146.5 -79v1106h1110v-279h-820v-409q59 18 120.5 27.5t129.5 9.5q107 0 205 -27t182.5 -76t153 -118t116.5 -153t74.5 -181.5t26.5 -202.5z" />
    <glyph glyph-name="six" unicode="6" horiz-adv-x="1679" 
d="M1593 750q0 -75 -15.5 -148t-43.5 -140.5t-67 -129t-87 -115.5q-108 -124 -245 -185t-295 -61q-104 0 -200 27.5t-179.5 78t-152.5 121t-118.5 157t-76.5 186.5t-27 209q0 72 10.5 136.5t30 124t47.5 115.5t64 111l618 930h348l-422 -631q16 0 32 2t38 2q103 0 198.5 -29
t177.5 -81t149.5 -125t115.5 -161t74 -188t26 -206zM1303 754q0 106 -38 197.5t-101.5 159.5t-147.5 107t-176 39t-175.5 -39t-146.5 -107t-100 -159.5t-37 -197.5q0 -108 37 -200.5t100 -161t146.5 -107.5t175.5 -39t176 39t147.5 107.5t101.5 161t38 200.5z" />
    <glyph glyph-name="seven" unicode="7" horiz-adv-x="1679" 
d="M512 0h-328l1065 1884h-1118v279h1450v-267z" />
    <glyph glyph-name="eight" unicode="8" horiz-adv-x="1679" 
d="M1503 602q0 -92 -24 -174.5t-67.5 -153t-104.5 -126.5t-134 -95.5t-156.5 -60.5t-172.5 -21q-87 0 -169.5 21t-155.5 60.5t-133.5 95.5t-104.5 126.5t-68.5 153t-24.5 174.5q0 164 62.5 296t195.5 228q-108 96 -160.5 212t-52.5 243q0 129 47 240.5t129.5 193.5t194 129
t240.5 47q130 0 242.5 -47t195 -129t129.5 -193.5t47 -240.5q0 -127 -52 -243t-161 -212q133 -96 195.5 -228t62.5 -296zM1171 1585q0 67 -26.5 127.5t-71 106t-104 72t-125.5 26.5t-125 -26.5t-103 -72t-70 -106t-26 -127.5q0 -69 25.5 -129t69 -104t102.5 -69.5t127 -25.5
q67 0 127 26t104 70.5t70 104t26 127.5zM1221 614q0 75 -30 141.5t-81.5 116t-120 78.5t-145.5 29q-75 0 -143 -29t-119 -78.5t-81 -116t-30 -141.5q0 -78 30.5 -146t82 -118t119 -79t141.5 -29q75 0 143.5 29t120 79t82.5 118t31 146z" />
    <glyph glyph-name="nine" unicode="9" horiz-adv-x="1679" 
d="M1597 1401q0 -69 -11 -131.5t-31.5 -121t-49 -113.5t-63.5 -109l-606 -926h-349l426 635q-21 -3 -40.5 -3.5t-41.5 -0.5q-101 0 -195.5 28.5t-176.5 80.5t-150 124t-116.5 159t-75.5 185.5t-27 204.5q0 110 27.5 211t77.5 187.5t120 156.5t154 119.5t180.5 76.5t198.5 27
q105 0 202 -28t180 -79t151 -122.5t116 -159.5t74 -189.5t26 -211.5zM1298 1413q0 105 -36.5 196t-98 158.5t-143 106.5t-172.5 39q-92 0 -176 -39t-148 -106.5t-101.5 -158.5t-37.5 -196q0 -106 37.5 -198t101.5 -160t148 -107t176 -39q91 0 172.5 39t143 107t98 160
t36.5 198z" />
    <glyph glyph-name="colon" unicode=":" horiz-adv-x="606" 
d="M504 1266q0 -43 -16 -80t-43 -64t-63.5 -42t-78.5 -15q-41 0 -77.5 15t-64 41.5t-43.5 62.5t-16 78q0 43 16 79.5t43.5 63.5t64 42t77.5 15q42 0 78.5 -15t63.5 -41.5t43 -62.5t16 -77zM504 172q0 -43 -16 -80t-43 -64t-63.5 -42t-78.5 -15q-41 0 -77.5 15t-64 41.5
t-43.5 62.5t-16 78q0 43 16 80t43.5 64t64 42t77.5 15q42 0 78.5 -15t63.5 -42t43 -64t16 -80v4z" />
    <glyph glyph-name="semicolon" unicode=";" horiz-adv-x="606" 
d="M504 1262q0 -42 -16 -78.5t-43 -63.5t-63.5 -43t-78.5 -16q-41 0 -77 16t-62.5 43t-42 63.5t-15.5 78.5q0 41 15.5 77.5t42 63.5t62.5 43t77 16q42 0 78.5 -16t63.5 -43t43 -63.5t16 -77.5zM537 115q0 -57 -21 -117t-63 -120t-106 -118t-150 -112l-140 139q42 26 74 49.5
t57.5 46t45 44t36.5 44.5q-37 5 -68.5 22t-54.5 42.5t-36 58.5t-13 70q0 41 15.5 78.5t42.5 65.5t64.5 44.5t82.5 16.5q60 0 104 -23t73 -59.5t43 -82t14 -89.5z" />
    <glyph glyph-name="less" unicode="&#x3c;" horiz-adv-x="1602" 
d="M94 676v237l1413 701v-279l-1069 -540l1069 -578v-274z" />
    <glyph glyph-name="equal" unicode="=" horiz-adv-x="1630" 
d="M90 881v258h1450v-258h-1450zM90 418v258h1450v-258h-1450z" />
    <glyph glyph-name="greater" unicode="&#x3e;" horiz-adv-x="1602" 
d="M94 -57v274l1069 578l-1069 540v279l1413 -701v-237z" />
    <glyph glyph-name="question" unicode="?" horiz-adv-x="1401" 
d="M1315 1634q0 -81 -20 -147t-53 -121.5t-75 -102t-85.5 -89l-85.5 -82t-75 -80.5t-53 -85t-20 -96v-323h-279v332q0 74 20 134.5t52.5 112t74 96t85 86l85 82.5t74 85t52.5 93.5t20 108.5q0 55 -21 109.5t-63.5 98t-107 70t-152.5 26.5q-94 0 -165.5 -32t-116 -92.5
t-59.5 -147t5 -195.5h-282q-22 108 -11.5 205.5t47 179.5t95.5 148t135 112t165.5 71t186.5 25q144 0 260 -47t197.5 -127t125.5 -185.5t44 -222.5zM909 172q0 -43 -15 -80.5t-42 -65t-63.5 -43.5t-79.5 -16t-80 16t-64 43.5t-42 65t-15 80.5t15 80t42 64t64 42t80 15
q41 0 77.5 -15t63.5 -42t43 -64t16 -80z" />
    <glyph glyph-name="at" unicode="@" horiz-adv-x="2261" 
d="M2261 496q-87 -135 -200 -233.5t-243 -162.5t-272.5 -94.5t-288.5 -30.5q-159 0 -310 34t-285 99.5t-246.5 161t-194 219.5t-127 275t-45.5 326q0 151 41 291.5t115 262.5t177.5 222t228 171.5t266.5 110.5t294 39q143 0 276 -31.5t249 -89.5t211 -141t163 -186.5
t105 -225t37 -256.5q0 -115 -29 -221.5t-80 -199.5t-120 -170t-148 -132t-165 -85.5t-171 -30.5q-66 0 -108.5 16.5t-67.5 41t-37 53t-16 53.5q-95 -59 -178.5 -83t-165.5 -24q-100 0 -177.5 33.5t-130 92t-79.5 137.5t-27 171q0 90 20.5 185t61 184.5t100 169t137 139.5
t173 94.5t208.5 34.5q83 0 158.5 -28.5t149.5 -98.5l24 74h225l-286 -860q-3 -5 -8.5 -21t-9 -37t-3.5 -44t7.5 -42.5t24 -32t46.5 -12.5q50 0 104.5 28t106 76.5t98 112.5t82 136.5t56 149t20.5 149.5q0 108 -32.5 204t-89.5 176.5t-135 144.5t-170 108.5t-194 68
t-206 23.5q-127 0 -245 -34t-221 -95.5t-187.5 -147t-145 -188t-94 -218.5t-33.5 -239q0 -140 38.5 -261.5t107 -221.5t163 -178t206.5 -131t237.5 -81t255.5 -28q104 0 205 18.5t195 57.5t179.5 100.5t157.5 147.5zM1425 1290q5 23 -6 60.5t-40 73t-76.5 61.5t-114.5 26
q-62 0 -120 -25.5t-109.5 -69t-94.5 -101.5t-74 -123t-48 -133.5t-17 -132.5q0 -54 11.5 -100t39.5 -79t75.5 -52t119.5 -19q54 0 108.5 25.5t101.5 66t83 89.5t51 97z" />
    <glyph glyph-name="A" unicode="A" horiz-adv-x="1905" 
d="M1602 0l-267 664h-766l-266 -664h-303l872 2163h168l865 -2163h-303zM954 1622l-278 -680h549z" />
    <glyph glyph-name="B" unicode="B" horiz-adv-x="1556" 
d="M1499 635q0 -111 -27.5 -201t-76 -160.5t-116.5 -122t-149 -85t-172.5 -50t-187.5 -16.5h-610v2163h495q148 0 270 -35t209.5 -109.5t136 -190t48.5 -276.5q0 -119 -32.5 -211.5t-115.5 -169.5q158 -83 243 -221.5t85 -314.5zM1032 1573q0 92 -29 153t-84 97t-134 50.5
t-179 14.5h-164v-635h164q60 0 115.5 4t102.5 16t85.5 34t66 57.5t42 86.5t14.5 122zM1212 631q0 96 -42.5 172.5t-116.5 114.5q-39 20 -85.5 31.5t-97 17t-103 7t-103.5 1.5h-222v-705h250q112 0 207.5 17t165 58.5t108.5 111t39 174.5z" />
    <glyph glyph-name="C" unicode="C" horiz-adv-x="1913" 
d="M1860 209q-92 -68 -177.5 -113.5t-169.5 -73t-170 -39.5t-180 -12q-151 0 -292 40t-265.5 112t-227.5 173.5t-177 224.5t-115 264t-41 292q0 153 41 295t115 265.5t177.5 225.5t228 175t267 113t293.5 40q86 0 171 -12t171 -39.5t173 -74t178 -115.5l-152 -226
q-81 61 -154.5 99t-141 59t-130.5 28t-123 7q-113 0 -218 -31.5t-196.5 -88.5t-167.5 -135.5t-130.5 -173.5t-84.5 -202t-30 -221q0 -107 31 -209t86 -193.5t132 -168.5t169 -133t196 -87.5t213 -31.5q60 0 123 7.5t130.5 29t141 59.5t154.5 100z" />
    <glyph glyph-name="D" unicode="D" horiz-adv-x="1778" 
d="M1737 1077q0 -166 -39 -310t-111.5 -264t-174.5 -213.5t-228 -158t-273 -98t-309 -33.5h-438v2163h438q165 0 313 -34t274.5 -98.5t227.5 -158.5t172.5 -214.5t109.5 -266.5t38 -314zM1450 1077q0 186 -63 336t-175.5 255.5t-269.5 162.5t-344 57h-152v-1618h152
q186 0 342.5 57t269.5 162.5t176.5 254.5t63.5 333z" />
    <glyph glyph-name="E" unicode="E" horiz-adv-x="1380" 
d="M160 0v2163h1114v-275h-832v-577h807v-275h-807v-766h832v-270h-1114z" />
    <glyph glyph-name="F" unicode="F" horiz-adv-x="1204" 
d="M446 1888v-577h680v-275h-680v-1036h-286v2163h983v-275h-697z" />
    <glyph glyph-name="G" unicode="G" horiz-adv-x="2347" 
d="M1196 -29q-156 0 -300.5 39.5t-270.5 112t-230 173.5t-178 224.5t-115 265t-41 295.5q0 153 41 294.5t115 265t178 225t230 173.5t270.5 112t300.5 40q297 0 545.5 -138.5t437.5 -410.5l-229 -172q-152 220 -340 329.5t-414 109.5q-117 0 -225 -29.5t-202.5 -83
t-172 -129t-132.5 -167.5t-85.5 -198t-30.5 -221t30.5 -220.5t85.5 -197.5t132.5 -167.5t172 -129t202.5 -83t225 -29.5q154 0 288 51.5t238.5 143t174 217t94.5 272.5h-881v287h1176q18 -165 -7.5 -322.5t-89 -296.5t-162 -256t-225.5 -201t-280 -131t-326 -47z" />
    <glyph glyph-name="H" unicode="H" horiz-adv-x="1942" 
d="M1499 0v1032h-1057v-1032h-282v2163h282v-852h1057v852h283v-2163h-283z" />
    <glyph glyph-name="I" unicode="I" horiz-adv-x="643" 
d="M176 0v2163h291v-2163h-291z" />
    <glyph glyph-name="J" unicode="J" horiz-adv-x="627" 
d="M467 -78q0 -92 -35.5 -174.5t-96.5 -144.5t-143 -98.5t-176 -36.5q-96 0 -176.5 36.5t-142.5 98.5l201 200q55 -49 118 -49q36 0 66 13t51.5 35.5t34 53.5t12.5 66v2241h287v-2241z" />
    <glyph glyph-name="K" unicode="K" horiz-adv-x="1692" 
d="M1339 0l-897 909v-909h-282v2163h282v-828l836 828h393l-1048 -1041l1114 -1122h-398z" />
    <glyph glyph-name="L" unicode="L" horiz-adv-x="963" 
d="M164 0v2163h282v-1893h508v-270h-790z" />
    <glyph glyph-name="M" unicode="M" horiz-adv-x="2511" 
d="M2220 0l-270 1393l-13 127l-41 -131l-553 -1389h-163l-557 1384l-41 140l-17 -135l-278 -1389h-283l438 2163h164l651 -1626l652 1626h164l434 -2163h-287z" />
    <glyph glyph-name="N" unicode="N" horiz-adv-x="2277" 
d="M2118 0h-176l-1500 1647v-1647h-282v2163h176l1499 -1635v1635h283v-2163z" />
    <glyph glyph-name="O" unicode="O" horiz-adv-x="2343" 
d="M2286 1081q0 -153 -40.5 -294.5t-113.5 -264.5t-175.5 -224.5t-226.5 -174t-265.5 -112.5t-293.5 -40q-153 0 -294.5 40t-265.5 112.5t-226 174t-175 224.5t-113 265t-40 294t40 293t113 264.5t175 225t226 174.5t266 113t294 40t293.5 -40t265.5 -113t226.5 -174.5
t175.5 -225t113.5 -264.5t40.5 -293zM1999 1081q0 114 -30.5 220t-85 199t-131 169.5t-168.5 131.5t-196.5 85.5t-216.5 30.5q-113 0 -218 -30.5t-196.5 -85.5t-167.5 -131.5t-130.5 -169.5t-84.5 -199t-30 -220t30 -220t84.5 -199.5t130.5 -170.5t167.5 -132.5t197 -86
t217.5 -30.5t216.5 30.5t196.5 86t168.5 132.5t131 170.5t85 200t30.5 219.5z" />
    <glyph glyph-name="P" unicode="P" horiz-adv-x="1294" 
d="M1278 1552q0 -151 -57 -264t-152.5 -188t-219.5 -112.5t-259 -37.5h-148v-950h-282v2163h430q137 0 262 -37.5t219.5 -113.5t150.5 -191t56 -269zM995 1561q0 96 -33.5 159t-90.5 100.5t-133 52.5t-160 15h-136v-663h152q82 0 155 19t127.5 59.5t86.5 104.5t32 153z" />
    <glyph glyph-name="Q" unicode="Q" horiz-adv-x="2339" 
d="M1962 -4l-147 184q-146 -102 -308 -155.5t-336 -53.5q-153 0 -294.5 39.5t-265.5 111t-226 172.5t-175 224.5t-113 266t-40 296.5q0 153 40.5 294.5t114 265t176 225t227 173.5t266.5 112t295 40q150 0 291.5 -39.5t265 -111.5t226 -172.5t176.5 -223t114.5 -263
t40.5 -291.5q0 -209 -65 -387t-197 -338l327 -369h-393zM1999 1065q0 117 -29 225.5t-82 203t-127.5 172.5t-166 134t-197.5 86.5t-221 30.5q-112 0 -216.5 -30.5t-196.5 -85.5t-168.5 -131.5t-131 -169.5t-85 -199t-30.5 -220q0 -116 30 -223t84.5 -200.5t131 -170
t169 -131t198 -84.5t219.5 -30q111 0 220.5 40t217.5 111l-385 398l217 188l373 -401q86 114 131 232.5t45 254.5z" />
    <glyph glyph-name="R" unicode="R" horiz-adv-x="1479" 
d="M1139 0l-635 934h-62v-934h-282v2163h426q96 0 188 -14.5t174 -45.5t151 -79t118.5 -116t77.5 -156.5t28 -199.5q0 -128 -36.5 -228t-103 -173.5t-159.5 -119.5t-205 -64l660 -967h-340zM1036 1556q0 98 -34.5 162.5t-93 102t-134.5 52.5t-160 15h-168l-4 -663h189
q79 0 152.5 19t129.5 59t89.5 102.5t33.5 150.5z" />
    <glyph glyph-name="S" unicode="S" horiz-adv-x="1507" 
d="M1446 631q0 -95 -27 -181t-75.5 -159.5t-115 -132.5t-145.5 -100.5t-167 -64t-179 -22.5q-235 0 -408.5 140.5t-275.5 412.5l254 119q45 -109 92 -185.5t100 -124.5t113.5 -69.5t132.5 -21.5q82 0 156 31.5t130.5 86t90 127.5t33.5 156q0 45 -17 82.5t-45 69t-64.5 58
t-76 49t-79.5 42.5t-74 39l-140.5 72.5t-139 73.5t-127 82.5t-103.5 101t-70 127.5t-26 162q0 127 43 235t121 187t186 123t239 44q86 0 167.5 -22t156.5 -67.5t142.5 -115.5t127.5 -167l-217 -177q-51 78 -97 131t-92 85t-94 45.5t-102 13.5q-63 0 -117.5 -24t-95 -65.5
t-63.5 -98.5t-23 -123q0 -41 15.5 -75t41 -62t59 -51.5t69 -43.5t70.5 -37.5l65 -33.5l381 -201q139 -73 204.5 -191.5t65.5 -279.5z" />
    <glyph glyph-name="T" unicode="T" horiz-adv-x="1331" 
d="M807 1888v-1888h-283v1888h-520v275h1323v-275h-520z" />
    <glyph glyph-name="U" unicode="U" horiz-adv-x="1835" 
d="M1675 831q0 -199 -56 -359t-156 -272t-239.5 -172.5t-305.5 -60.5q-199 0 -342 59.5t-235.5 171t-136.5 272t-44 361.5v1332h286v-1291q0 -131 19.5 -245.5t72 -200t144.5 -135t236 -49.5q98 0 171 22t125.5 62.5t86.5 98t53.5 127.5t27 151t7.5 169v1291h286v-1332z" />
    <glyph glyph-name="V" unicode="V" horiz-adv-x="1671" 
d="M913 0h-163l-746 2163h299l496 -1450l37 -148l36 148l496 1450h299z" />
    <glyph glyph-name="W" unicode="W" horiz-adv-x="3076" 
d="M2380 0h-164l-639 1556l-41 136l-37 -136l-639 -1556h-164l-692 2163h295l471 -1458l37 -156l45 151l614 1463h160l606 -1450l49 -160l41 164l459 1446h295z" />
    <glyph glyph-name="X" unicode="X" horiz-adv-x="1511" 
d="M1188 0l-438 819l-431 -819h-319l590 1102l-565 1061h315l414 -766l405 766h320l-566 -1061l594 -1102h-319z" />
    <glyph glyph-name="Y" unicode="Y" horiz-adv-x="1737" 
d="M1016 913v-913h-295v913l-717 1250h324l540 -942l541 942h324z" />
    <glyph glyph-name="Z" unicode="Z" horiz-adv-x="1634" 
d="M430 270h1098v-270h-1450v229l1093 1659h-1060v275h1417v-226z" />
    <glyph glyph-name="bracketleft" unicode="[" horiz-adv-x="819" 
d="M115 -487v2801h610v-270h-340v-2257h340v-274h-610z" />
    <glyph glyph-name="backslash" unicode="\" horiz-adv-x="1876" 
d="M1462 0l-1319 2408h287l1327 -2408h-295z" />
    <glyph glyph-name="bracketright" unicode="]" horiz-adv-x="819" 
d="M94 -487v270h344v2257h-344v274h611v-2801h-611z" />
    <glyph glyph-name="asciicircum" unicode="^" horiz-adv-x="1688" 
d="M1389 795l-545 1085l-537 -1085h-282l708 1437h225l709 -1433z" />
    <glyph glyph-name="underscore" unicode="_" horiz-adv-x="1552" 
d="M8 -385v250h1536v-250h-1536z" />
    <glyph glyph-name="grave" unicode="`" horiz-adv-x="836" 
d="M524 1495l-446 528l315 107l348 -533z" />
    <glyph glyph-name="a" unicode="a" horiz-adv-x="1753" 
d="M1327 0v147q-195 -176 -483 -176q-180 0 -323 63t-243.5 171t-154 252t-53.5 305t53.5 301.5t153 244.5t241 164t318.5 60q289 0 491 -172v143h270v-1503h-270zM1339 774q0 109 -35.5 201.5t-101.5 159.5t-160 105t-211 38q-106 0 -196 -42.5t-155.5 -114t-102.5 -165
t-37 -194.5q0 -109 35 -206.5t99.5 -171t157 -116.5t208.5 -43q118 0 211 42.5t157 117t97.5 174.5t33.5 215z" />
    <glyph glyph-name="b" unicode="b" horiz-adv-x="1757" 
d="M1688 766q0 -108 -24.5 -208t-71 -188t-113.5 -160.5t-153.5 -125t-190 -81t-222.5 -28.5q-66 0 -132 11t-128.5 33t-120 55t-106.5 78v-152h-274v2441h274v-1065q51 43 109 74t121 51t129.5 29.5t132.5 9.5q178 0 320.5 -59.5t242.5 -163.5t153.5 -245.5t53.5 -305.5z
M1417 766q0 103 -37 197t-103 166t-157 114.5t-198 42.5q-122 0 -216.5 -39t-159 -108.5t-98.5 -165t-34 -207.5t34 -210t98.5 -170.5t157 -114.5t209.5 -42t210.5 43t158.5 116.5t100 171t35 206.5z" />
    <glyph glyph-name="c" unicode="c" horiz-adv-x="1446" 
d="M1413 143q-74 -49 -142 -82.5t-133.5 -54.5t-130 -30t-130.5 -9q-116 0 -220.5 28t-194.5 78.5t-162.5 122t-123.5 159t-78.5 188.5t-27.5 211q0 108 28 208t79.5 186.5t124 157t162 121t194 78t219.5 27.5q66 0 130.5 -8.5t130 -29t133.5 -54t142 -84.5l-115 -238
q-66 48 -121.5 79.5t-106.5 50t-99 26.5t-99 8q-112 0 -208.5 -43t-167.5 -115.5t-111.5 -168t-40.5 -201.5t40.5 -202.5t111.5 -170t167.5 -117t208.5 -43.5q51 0 99 7t99 25t106.5 49t121.5 79z" />
    <glyph glyph-name="d" unicode="d" horiz-adv-x="1757" 
d="M1335 0v143q-51 -43 -109.5 -74.5t-121.5 -52.5t-128 -31t-128 -10q-180 0 -324 63t-245 171t-155 252t-54 305q0 164 53.5 305.5t153.5 245.5t242.5 163.5t320.5 59.5q136 0 264.5 -42.5t230.5 -129.5v1073h271v-2441h-271zM1343 782q0 109 -35.5 201.5t-101.5 159.5
t-159.5 105t-210.5 38q-106 0 -196 -42.5t-156 -114.5t-103 -166t-37 -197q0 -109 35 -206.5t100 -171t157.5 -116.5t207.5 -43q120 0 212.5 43t156.5 118t97 176t33 216z" />
    <glyph glyph-name="e" unicode="e" horiz-adv-x="1659" 
d="M344 676q11 -106 52.5 -190.5t108 -143t154.5 -90t193 -31.5q287 0 483 336l234 -127q-68 -122 -147.5 -209.5t-171.5 -143.5t-195.5 -83t-218.5 -27q-118 0 -220.5 29t-187.5 81.5t-151.5 125t-112.5 160t-70 187t-24 204.5q0 103 24 201t70 184.5t112.5 158.5
t151.5 124t187.5 81t220.5 29q178 0 318 -64.5t236.5 -179t147.5 -271.5t51 -341h-1245zM1303 926q-23 75 -67 139.5t-104 111.5t-135 74t-161 27t-163 -27t-140 -74t-108.5 -111.5t-68.5 -139.5h947z" />
    <glyph glyph-name="f" unicode="f" horiz-adv-x="774" 
d="M455 1241v-1241h-275v1241h-160v254h160v397q0 71 9 141t30 133t54.5 117.5t82.5 94t115.5 62t151.5 22.5q37 0 83 -6t105 -31l-66 -230q-27 7 -56.5 10t-57.5 3q-49 0 -81.5 -14t-52 -38t-28.5 -56t-12 -68t-2.5 -74t0.5 -74v-389h360v-254h-360z" />
    <glyph glyph-name="g" unicode="g" horiz-adv-x="1757" 
d="M1606 160q0 -126 -22 -246t-65.5 -227t-109 -197t-152.5 -155t-195.5 -101.5t-238.5 -36.5q-98 0 -191.5 19t-177.5 57.5t-155 97.5t-125 138.5t-87.5 180.5t-41.5 224h270q11 -117 53 -204.5t107.5 -146t151.5 -87.5t184 -29q113 0 195.5 26t141 72.5t95 110t57 139.5
t28 161.5t7.5 174.5q-108 -87 -236 -131.5t-268 -44.5q-115 0 -215.5 30t-185 83t-151.5 126.5t-113.5 161t-71 185.5t-24.5 200q0 107 26 207t74.5 187t118 158.5t156.5 123t189.5 79.5t217.5 28q282 0 483 -176v147h271v-1335zM1343 766q0 106 -36 198t-103 160
t-161.5 107t-211.5 39q-106 0 -195 -42.5t-154 -114.5t-101.5 -166t-36.5 -197q0 -111 35 -209t100 -172t157.5 -117t207.5 -43q120 0 212.5 43.5t156.5 118.5t97 176.5t33 218.5z" />
    <glyph glyph-name="h" unicode="h" horiz-adv-x="1536" 
d="M1384 0h-274v893q0 92 -9.5 164.5t-41.5 122.5t-92.5 76t-163.5 26q-78 0 -136.5 -20.5t-100.5 -57t-70 -87t-44.5 -110.5t-23 -127.5t-6.5 -138.5v-741h-270v2445h270v-1052q167 143 393 143q168 0 277.5 -47.5t174.5 -132.5t91 -203.5t26 -259.5v-893z" />
    <glyph glyph-name="i" unicode="i" horiz-adv-x="614" 
d="M504 2007q0 -42 -15 -77t-41.5 -60.5t-62.5 -40t-78 -14.5q-41 0 -76.5 14.5t-61 40t-40 60.5t-14.5 77q0 38 14.5 73t40 61.5t61 42.5t76.5 16q42 0 78 -16t62.5 -42.5t41.5 -61.5t15 -73zM168 0v1495h278v-1495h-278z" />
    <glyph glyph-name="j" unicode="j" horiz-adv-x="614" 
d="M504 2007q0 -42 -15 -77t-41.5 -60.5t-62.5 -40t-78 -14.5q-41 0 -76.5 14.5t-61 40t-40 60.5t-14.5 77q0 38 14.5 73t40 61.5t61 42.5t76.5 16q42 0 78 -16t62.5 -42.5t41.5 -61.5t15 -73zM168 -877v2372h278v-2372h-278z" />
    <glyph glyph-name="k" unicode="k" horiz-adv-x="1413" 
d="M1102 0l-656 664l-12 -13v-651h-274v2445h274v-1413l467 467h369l-639 -651l844 -848h-373z" />
    <glyph glyph-name="l" unicode="l" horiz-adv-x="614" 
d="M168 0v2449h278v-2449h-278z" />
    <glyph glyph-name="m" unicode="m" horiz-adv-x="2277" 
d="M2118 0h-279v918q0 86 -8.5 153t-35 113t-76 70t-130.5 24q-90 0 -150.5 -35.5t-97 -96.5t-52 -143t-15.5 -176v-827h-270v881q0 89 -10.5 162t-40 125.5t-81.5 81t-135 28.5q-52 0 -95 -21.5t-76.5 -58.5t-58.5 -86t-41 -103.5t-24 -112t-8 -110.5v-786h-274v1495h274
l-4 -139q70 95 157.5 135.5t182.5 40.5q133 0 230.5 -50.5t162.5 -146.5q86 108 194.5 152.5t231.5 44.5q111 0 193 -24t141 -67.5t96.5 -102.5t59.5 -129.5t30.5 -148.5t8.5 -159v-901z" />
    <glyph glyph-name="n" unicode="n" horiz-adv-x="1524" 
d="M1090 0v885q0 104 -10.5 177.5t-41.5 119.5t-88 67t-151 21q-63 0 -114.5 -24t-92.5 -64t-71.5 -93.5t-50.5 -113t-30 -121t-10 -117.5v-737h-270v1495h270v-152q84 87 178.5 136t202.5 49q164 0 271 -47t169.5 -131.5t87.5 -203t25 -261.5v-885h-274z" />
    <glyph glyph-name="o" unicode="o" horiz-adv-x="1733" 
d="M1663 758q0 -168 -61.5 -311.5t-169.5 -249.5t-254.5 -166t-317.5 -60q-110 0 -211 28t-188.5 79.5t-159.5 123t-123.5 158.5t-79.5 187t-28 207t28 207.5t79.5 187.5t123.5 159t159.5 123.5t189 80t210.5 28.5q114 0 217.5 -27t193 -77.5t162 -121t123.5 -157.5t79 -188
t28 -211zM1393 754q0 115 -41.5 211.5t-114 166t-171.5 108t-214 38.5q-106 0 -198 -41.5t-160 -113t-107 -167t-39 -202.5q0 -105 39.5 -200t108 -167t160 -115t196.5 -43q115 0 214 40.5t171.5 111.5t114 166.5t41.5 206.5z" />
    <glyph glyph-name="p" unicode="p" horiz-adv-x="1729" 
d="M1663 737q0 -164 -51.5 -305.5t-149 -245.5t-237 -163.5t-316.5 -59.5q-126 0 -246.5 40.5t-228.5 135.5v-1020h-274v2376h274v-139q108 95 228 133.5t243 38.5q178 0 319 -63t238.5 -171t149 -252t51.5 -305zM1384 733q0 109 -34.5 208t-97 174t-150 119t-193.5 44
q-117 0 -206 -43.5t-150 -118.5t-92 -176.5t-31 -218.5q0 -111 34 -203t97 -158t152 -102.5t200 -36.5q103 0 189.5 41t149 111t97.5 163t35 197z" />
    <glyph glyph-name="q" unicode="q" horiz-adv-x="1729" 
d="M1294 -877v1012q-107 -95 -227.5 -133.5t-243.5 -38.5q-175 0 -315 59.5t-238.5 163t-151 244t-52.5 303.5q0 107 23.5 208t69 189.5t111.5 161.5t150.5 125.5t186.5 81.5t220 29q121 0 240 -39t227 -129v135h275v-2372h-275zM1303 733q0 109 -35 208t-98.5 174t-152 119
t-194.5 44q-112 0 -201 -43.5t-150.5 -118.5t-94.5 -176.5t-33 -218.5q0 -111 34.5 -203t98.5 -158t154 -102.5t200 -36.5q103 0 189.5 41t149.5 111t98 163t35 197z" />
    <glyph glyph-name="r" unicode="r" horiz-adv-x="950" 
d="M827 1208q-26 14 -44 21.5t-30.5 11t-20 4t-11.5 0.5q-62 0 -107 -23t-77 -62.5t-52 -91t-31.5 -108t-15.5 -115.5t-4 -112v-737h-274v1499h274v-139q23 31 55.5 61t70 54t78.5 38.5t83 14.5q23 0 46.5 -1.5t52.5 -7t65.5 -16t85.5 -29.5z" />
    <glyph glyph-name="s" unicode="s" horiz-adv-x="1167" 
d="M1106 459q0 -111 -41 -202t-111.5 -156.5t-164 -101.5t-199.5 -36q-98 0 -186.5 30t-161.5 89t-127.5 147t-85.5 205l250 94q26 -86 57.5 -144.5t70 -94.5t84 -52t99.5 -16q49 0 93 19t77 51.5t52 76.5t19 95q0 45 -14.5 76t-42 54.5t-69 42t-95.5 36.5q-83 29 -164 65.5
t-145.5 88t-104.5 121.5t-40 167q0 95 36.5 172.5t98 132t142 84t169.5 29.5q60 0 120.5 -16.5t118.5 -53t110.5 -95t97.5 -142.5l-234 -131q-31 55 -59.5 90t-55 55t-52 27.5t-50.5 7.5q-32 0 -62 -12t-52.5 -32.5t-36 -47.5t-13.5 -56q0 -34 18 -60.5t47 -48t66 -38.5
t74 -30.5l71.5 -25t59.5 -22.5q78 -34 140 -72.5t105.5 -90t67 -119.5t23.5 -160z" />
    <glyph glyph-name="t" unicode="t" horiz-adv-x="881" 
d="M553 1237v-1237h-274v1237h-222v258h222v541h274v-541h311v-258h-311z" />
    <glyph glyph-name="u" unicode="u" horiz-adv-x="1524" 
d="M1364 610q0 -143 -28.5 -262t-97.5 -204.5t-185 -133t-291 -47.5t-291 47.5t-185 133t-97.5 204.5t-28.5 262v885h270v-885q0 -100 13 -173t49.5 -121t101.5 -71.5t168 -23.5q100 0 163.5 23.5t100 71.5t50.5 121t14 173v885h274v-885z" />
    <glyph glyph-name="v" unicode="v" horiz-adv-x="1495" 
d="M836 0h-168l-664 1495h291l459 -1024l442 1024h295z" />
    <glyph glyph-name="w" unicode="w" horiz-adv-x="2449" 
d="M1810 0h-168l-417 991l-398 -991h-172l-651 1495h295l442 -1020l414 1020h156l422 -1020l430 1020h282z" />
    <glyph glyph-name="x" unicode="x" horiz-adv-x="1556" 
d="M1225 0l-451 582l-450 -582h-332l610 791l-565 704h332l409 -504l393 504h345l-558 -704l607 -791h-340z" />
    <glyph glyph-name="y" unicode="y" horiz-adv-x="1683" 
d="M664 -877h-291l356 840l-725 1532h295l578 -1204l512 1204h290z" />
    <glyph glyph-name="z" unicode="z" horiz-adv-x="1532" 
d="M119 0v225l901 1016h-860v254h1253v-213l-905 -1028h905v-254h-1294z" />
    <glyph glyph-name="braceleft" unicode="{" horiz-adv-x="844" 
d="M815 -487q-166 7 -270.5 43t-163.5 102t-80.5 163t-21.5 228v463q0 48 -12 87t-37 75t-63.5 72t-92.5 77v189q55 41 93 75t62 68t34.5 71t10.5 85v463q0 132 22.5 230t82.5 164.5t165 102t271 43.5v-266q-78 -2 -130 -8.5t-83 -24.5t-44 -49t-13 -82v-495
q0 -97 -11.5 -169.5t-33.5 -128.5t-54 -98.5t-73 -79.5q41 -37 72.5 -80.5t52.5 -101.5t32 -132.5t11 -172.5v-487q0 -54 13.5 -86t45 -48.5t84.5 -21t131 -4.5v-266z" />
    <glyph glyph-name="bar" unicode="|" horiz-adv-x="856" 
d="M291 -29v2421h274v-2421h-274z" />
    <glyph glyph-name="braceright" unicode="}" horiz-adv-x="844" 
d="M770 823q-54 -41 -92 -77t-62 -72t-35.5 -75t-11.5 -87v-463q0 -131 -22 -228t-82 -163t-165 -102t-271 -43v262q78 0 130 5.5t83 22.5t44 49.5t13 86.5v487q0 98 11.5 172.5t33 132.5t53.5 101.5t74 80.5q-42 37 -73.5 79.5t-52.5 98.5t-31.5 128.5t-10.5 169.5v495
q0 51 -13.5 82t-45 49t-84.5 24.5t-131 8.5v266q166 -8 270.5 -43.5t163.5 -102t80.5 -164.5t21.5 -230v-463q0 -48 11.5 -85t36 -71t63.5 -68t94 -75v-189z" />
    <glyph glyph-name="asciitilde" unicode="~" horiz-adv-x="1765" 
d="M1692 909q-54 -86 -108 -160t-113.5 -128.5t-127.5 -85.5t-151 -31q-55 0 -107.5 16.5t-102.5 41t-99 53t-98 53t-98.5 41t-100.5 16.5q-31 0 -58.5 -11t-56.5 -37.5t-62.5 -70.5t-76.5 -110l-254 127q58 80 114 150t116.5 122.5t128.5 82.5t149 30q55 0 113.5 -16
t116.5 -40t113.5 -52.5l104.5 -52.5t90.5 -40t71.5 -16q29 0 56.5 12t56.5 41.5t60.5 79.5t68.5 125z" />
    <glyph glyph-name="sarainarrowthai" 
d="M-1573 2130v258h1409v-258h-1409z" />
    <glyph glyph-name="saraiinarrowthai" 
d="M-1573 2130v258h1151v246h258v-504h-1409z" />
    <glyph glyph-name="sarauenarrowthai" 
d="M-139 2384q0 -54 -20 -100t-54.5 -80.5t-79.5 -54t-96 -19.5h-1184v258h930q1 54 21.5 99t54.5 77.5t78.5 51t95.5 18.5q54 0 100 -19t80.5 -52.5t54 -79t19.5 -99.5zM-307 2380q0 17 -7 32.5t-19 27.5t-27.5 19t-32.5 7t-32.5 -7t-27.5 -19t-19 -27.5t-7 -32.5t7 -32.5
t19 -27.5t27.5 -19t32.5 -7t32.5 7t27.5 19t19 27.5t7 32.5z" />
    <glyph glyph-name="saraueenarrowthai" 
d="M-1573 2130v258h721v246h254v-246h176v246h258v-504h-1409z" />
    <glyph glyph-name="sarauchochanthai" 
d="M-791 -770v328h-163v262h278q31 0 57 -11.5t45.5 -31t30.5 -46t11 -55.5v-446h-259z" />
    <glyph glyph-name="sarauuchochanthai" 
d="M-328 -467q0 -74 -28 -139t-76 -113t-112 -76t-136 -28q-74 0 -139 28t-113 76t-76 113t-28 139v25h-164v262h422v-287q0 -20 7 -37.5t20 -31t30 -21.5t37 -8q46 0 72 29t26 69v287h258v-287z" />
    <glyph glyph-name="maiekupperleftthai.alt9" 
d="M-1036 2798v503h254v-503h-254z" />
    <glyph glyph-name="maichattawaupperleftthai.alt9" 
d="M-786 2957v-180h-258v176h-172v221h172v181h258v-177h172v-221h-172z" />
    <glyph glyph-name="saraileftthai" 
d="M-1774 2130v258h1188v-258h-1188z" />
    <glyph glyph-name="saraileftthai" unicode="&#xf701;" 
d="M-1774 2130v258h1188v-258h-1188z" />
    <glyph glyph-name="saraiileftthai" 
d="M-1774 2130v258h926v246h262v-504h-1188z" />
    <glyph glyph-name="saraiileftthai" unicode="&#xf702;" 
d="M-1774 2130v258h926v246h262v-504h-1188z" />
    <glyph glyph-name="saraueleftthai" 
d="M-549 2384q0 -54 -20 -100t-54.5 -80.5t-79.5 -54t-96 -19.5h-975v258h721q1 54 21.5 99t54.5 77.5t78.5 51t95.5 18.5q54 0 100.5 -19t80.5 -52.5t53.5 -79t19.5 -99.5zM-717 2380q0 17 -7 32.5t-19 27.5t-27.5 19t-32.5 7t-32.5 -7t-27.5 -19t-19 -27.5t-7 -32.5
t7 -32.5t19 -27.5t27.5 -19t32.5 -7t32.5 7t27.5 19t19 27.5t7 32.5z" />
    <glyph glyph-name="saraueleftthai" unicode="&#xf703;" 
d="M-549 2384q0 -54 -20 -100t-54.5 -80.5t-79.5 -54t-96 -19.5h-975v258h721q1 54 21.5 99t54.5 77.5t78.5 51t95.5 18.5q54 0 100.5 -19t80.5 -52.5t53.5 -79t19.5 -99.5zM-717 2380q0 17 -7 32.5t-19 27.5t-27.5 19t-32.5 7t-32.5 -7t-27.5 -19t-19 -27.5t-7 -32.5
t7 -32.5t19 -27.5t27.5 -19t32.5 -7t32.5 7t27.5 19t19 27.5t7 32.5z" />
    <glyph glyph-name="saraueeleftthai" 
d="M-1774 2130v258h504v246h254v-246h176v246h254v-504h-1188z" />
    <glyph glyph-name="saraueeleftthai" unicode="&#xf704;" 
d="M-1774 2130v258h504v246h254v-246h176v246h254v-504h-1188z" />
    <glyph glyph-name="maieklowleftthai" 
d="M-1044 2126v618h266v-614z" />
    <glyph glyph-name="maieklowleftthai" unicode="&#xf705;" 
d="M-1044 2126v618h266v-614z" />
    <glyph glyph-name="maitholowleftthai" 
d="M-1430 2126l33 46.5l42 57.5l44 60t39 56t28 45t11 26q0 69 -70 69q-30 0 -49 -24l-168 168q50 49 106.5 69.5t115.5 20.5q67 0 129.5 -23t107 -62t64.5 -91t2 -111l-17 -57h496v-246z" />
    <glyph glyph-name="maitholowleftthai" unicode="&#xf706;" 
d="M-1430 2126l33 46.5l42 57.5l44 60t39 56t28 45t11 26q0 69 -70 69q-30 0 -49 -24l-168 168q50 49 106.5 69.5t115.5 20.5q67 0 129.5 -23t107 -62t64.5 -91t2 -111l-17 -57h496v-246z" />
    <glyph glyph-name="maitrilowleftthai" 
d="M-1102 2126l42.5 72.5t41 73.5t31 69t12.5 59q0 20 -7.5 36t-20.5 27t-29 17t-33 6q-12 0 -29.5 -5t-33.5 -19.5t-27.5 -41t-11.5 -69.5h-189q0 43 -9 69.5t-23 41t-31.5 19.5t-34.5 5q-34 0 -58 -22.5t-24 -63.5q0 -8 0.5 -19t8 -26.5t24.5 -35t49 -42.5l-160 -159
q-35 23 -67.5 53t-57.5 65t-40 74.5t-15 81.5q0 66 26.5 125t72 103t105.5 70t128 26q59 0 111 -16t89 -62q47 46 96.5 62t108.5 16q66 0 129.5 -23t111.5 -64t73 -97.5t14 -123.5l-8 -49h217v-229z" />
    <glyph glyph-name="maitrilowleftthai" unicode="&#xf707;" 
d="M-1102 2126l42.5 72.5t41 73.5t31 69t12.5 59q0 20 -7.5 36t-20.5 27t-29 17t-33 6q-12 0 -29.5 -5t-33.5 -19.5t-27.5 -41t-11.5 -69.5h-189q0 43 -9 69.5t-23 41t-31.5 19.5t-34.5 5q-34 0 -58 -22.5t-24 -63.5q0 -8 0.5 -19t8 -26.5t24.5 -35t49 -42.5l-160 -159
q-35 23 -67.5 53t-57.5 65t-40 74.5t-15 81.5q0 66 26.5 125t72 103t105.5 70t128 26q59 0 111 -16t89 -62q47 46 96.5 62t108.5 16q66 0 129.5 -23t111.5 -64t73 -97.5t14 -123.5l-8 -49h217v-229z" />
    <glyph glyph-name="maichattawalowleftthai" 
d="M-856 2355v-229h-258v225h-225v242h225v229h258v-225h225v-242h-225z" />
    <glyph glyph-name="maichattawalowleftthai" unicode="&#xf708;" 
d="M-856 2355v-229h-258v225h-225v242h225v229h258v-225h225v-242h-225z" />
    <glyph glyph-name="thanthakhatlowleftthai" 
d="M-926 2351q-9 0 -23 -7.5t-14 -29.5q0 -8 2.5 -13t10 -12.5l21 -20.5l36.5 -36l-172 -172q-38 37 -64.5 69t-43 62t-24 61t-7.5 66q0 66 19.5 118.5t55.5 89t88.5 56t118.5 19.5h353v-250h-357z" />
    <glyph glyph-name="thanthakhatlowleftthai" unicode="&#xf709;" 
d="M-926 2351q-9 0 -23 -7.5t-14 -29.5q0 -8 2.5 -13t10 -12.5l21 -20.5l36.5 -36l-172 -172q-38 37 -64.5 69t-43 62t-24 61t-7.5 66q0 66 19.5 118.5t55.5 89t88.5 56t118.5 19.5h353v-250h-357z" />
    <glyph glyph-name="maieklowrightthai" 
d="M-430 2126v618h266v-614z" />
    <glyph glyph-name="maieklowrightthai" unicode="&#xf70a;" 
d="M-430 2126v618h266v-614z" />
    <glyph glyph-name="maitholowrightthai" 
d="M-934 2126l33 45.5l42.5 57.5l45 61l40.5 57t29 45t11 25q0 34 -20 51.5t-54 17.5q-31 0 -49 -24l-168 168q50 49 106 69.5t115 20.5q67 0 129 -22.5t106.5 -61.5t64 -91.5t3.5 -111.5l-16 -57h516v-246z" />
    <glyph glyph-name="maitholowrightthai" unicode="&#xf70b;" 
d="M-934 2126l33 45.5l42.5 57.5l45 61l40.5 57t29 45t11 25q0 34 -20 51.5t-54 17.5q-31 0 -49 -24l-168 168q50 49 106 69.5t115 20.5q67 0 129 -22.5t106.5 -61.5t64 -91.5t3.5 -111.5l-16 -57h516v-246z" />
    <glyph glyph-name="maitrilowrightthai" 
d="M-688 2126l40.5 71.5t41.5 78t32 71.5t13 53t-7.5 36t-20.5 27t-29 17t-33 6q-12 0 -30 -5t-34 -19.5t-27.5 -41t-11.5 -69.5h-188q0 43 -9 69.5t-23 41t-31.5 19.5t-34.5 5q-34 0 -58 -22.5t-24 -63.5q0 -8 0.5 -19t8 -26.5t24.5 -35t49 -42.5l-160 -159
q-35 23 -67.5 53t-57.5 65t-40 74.5t-15 81.5q0 66 26.5 125t71.5 103t105 70t128 26q59 0 111.5 -16t89.5 -62q47 46 96.5 62t108.5 16q44 0 87.5 -10.5t83 -30t72 -47t54.5 -61.5t30.5 -74.5t0.5 -84.5l-9 -49l324 4v-233z" />
    <glyph glyph-name="maitrilowrightthai" unicode="&#xf70c;" 
d="M-688 2126l40.5 71.5t41.5 78t32 71.5t13 53t-7.5 36t-20.5 27t-29 17t-33 6q-12 0 -30 -5t-34 -19.5t-27.5 -41t-11.5 -69.5h-188q0 43 -9 69.5t-23 41t-31.5 19.5t-34.5 5q-34 0 -58 -22.5t-24 -63.5q0 -8 0.5 -19t8 -26.5t24.5 -35t49 -42.5l-160 -159
q-35 23 -67.5 53t-57.5 65t-40 74.5t-15 81.5q0 66 26.5 125t71.5 103t105 70t128 26q59 0 111.5 -16t89.5 -62q47 46 96.5 62t108.5 16q44 0 87.5 -10.5t83 -30t72 -47t54.5 -61.5t30.5 -74.5t0.5 -84.5l-9 -49l324 4v-233z" />
    <glyph glyph-name="maichattawalowrightthai" 
d="M-164 2355v-229h-258v225h-225v242h225v229h258v-225h225v-242h-225z" />
    <glyph glyph-name="maichattawalowrightthai" unicode="&#xf70d;" 
d="M-164 2355v-229h-258v225h-225v242h225v229h258v-225h225v-242h-225z" />
    <glyph glyph-name="thanthakhatlowrightthai" 
d="M-442 2351q-10 0 -23.5 -7.5t-13.5 -29.5q0 -8 2.5 -13t10 -12.5l20 -20.5t32.5 -36l-172 -172q-38 37 -64.5 69t-43 62t-24 61t-7.5 66q0 68 20 120.5t57.5 88.5t90.5 55t119 19h348v-250h-352z" />
    <glyph glyph-name="thanthakhatlowrightthai" unicode="&#xf70e;" 
d="M-442 2351q-10 0 -23.5 -7.5t-13.5 -29.5q0 -8 2.5 -13t10 -12.5l20 -20.5t32.5 -36l-172 -172q-38 37 -64.5 69t-43 62t-24 61t-7.5 66q0 68 20 120.5t57.5 88.5t90.5 55t119 19h348v-250h-352z" />
    <glyph glyph-name="maihanakatleftthai" 
d="M-889 2126q-60 0 -113 23.5t-92.5 64t-62.5 94t-23 113.5v168h258v-168q0 -16 9 -24.5t24 -8.5h971v-258z" />
    <glyph glyph-name="maihanakatleftthai" unicode="&#xf710;" 
d="M-889 2126q-60 0 -113 23.5t-92.5 64t-62.5 94t-23 113.5v168h258v-168q0 -16 9 -24.5t24 -8.5h971v-258z" />
    <glyph glyph-name="nikhahitleftthai" 
d="M-635 2355q0 -60 -23 -113t-63 -92.5t-94 -62.5t-115 -23q-60 0 -113.5 23t-94 62.5t-64 92.5t-23.5 113q0 61 23.5 115t64 94t94 63t113.5 23q61 0 115 -23t94 -63t63 -94t23 -115zM-831 2355q0 20 -8 37t-21.5 30t-31.5 20t-38 7q-40 0 -67 -27t-27 -67q0 -20 7 -37.5
t20 -31t30 -21.5t37 -8t38 8t31.5 21.5t21.5 31t8 37.5z" />
    <glyph glyph-name="nikhahitleftthai" unicode="&#xf711;" 
d="M-635 2355q0 -60 -23 -113t-63 -92.5t-94 -62.5t-115 -23q-60 0 -113.5 23t-94 62.5t-64 92.5t-23.5 113q0 61 23.5 115t64 94t94 63t113.5 23q61 0 115 -23t94 -63t63 -94t23 -115zM-831 2355q0 20 -8 37t-21.5 30t-31.5 20t-38 7q-40 0 -67 -27t-27 -67q0 -20 7 -37.5
t20 -31t30 -21.5t37 -8t38 8t31.5 21.5t21.5 31t8 37.5z" />
    <glyph glyph-name="maitaikhuleftthai" 
d="M-1364 2638q-29 0 -50 -14t-34.5 -35t-20 -46.5t-6.5 -48.5t6.5 -47t20.5 -43.5t35.5 -32t52.5 -12.5q47 0 77 37t30 115h237q0 -83 24 -117.5t70 -34.5q99 0 99 152h237q0 -92 -26 -164t-71 -121t-105.5 -74.5t-129.5 -25.5q-131 0 -217 86q-37 -47 -94 -66.5
t-119 -19.5q-78 0 -143.5 27.5t-112.5 76t-73.5 115.5t-26.5 145q0 88 25.5 159t72.5 121t112.5 77.5t145.5 27.5h836v-237h-852z" />
    <glyph glyph-name="maitaikhuleftthai" unicode="&#xf712;" 
d="M-1364 2638q-29 0 -50 -14t-34.5 -35t-20 -46.5t-6.5 -48.5t6.5 -47t20.5 -43.5t35.5 -32t52.5 -12.5q47 0 77 37t30 115h237q0 -83 24 -117.5t70 -34.5q99 0 99 152h237q0 -92 -26 -164t-71 -121t-105.5 -74.5t-129.5 -25.5q-131 0 -217 86q-37 -47 -94 -66.5
t-119 -19.5q-78 0 -143.5 27.5t-112.5 76t-73.5 115.5t-26.5 145q0 88 25.5 159t72.5 121t112.5 77.5t145.5 27.5h836v-237h-852z" />
    <glyph glyph-name="maiekupperleftthai" 
d="M-836 2798v503h254v-503h-254z" />
    <glyph glyph-name="maiekupperleftthai" unicode="&#xf713;" 
d="M-836 2798v503h254v-503h-254z" />
    <glyph glyph-name="maithoupperleftthai" 
d="M-1077 2798l29.5 43.5l39.5 57l42 61.5l38 57.5t28 45.5t11 25q0 74 -57 74q-22 0 -35 -6t-23 -18l-163 163q46 47 99 68.5t118 21.5q66 0 128.5 -24t108 -64.5t66.5 -94t4 -111.5l-16 -54l495 4v-249h-913z" />
    <glyph glyph-name="maithoupperleftthai" unicode="&#xf714;" 
d="M-1077 2798l29.5 43.5l39.5 57l42 61.5l38 57.5t28 45.5t11 25q0 74 -57 74q-22 0 -35 -6t-23 -18l-163 163q46 47 99 68.5t118 21.5q66 0 128.5 -24t108 -64.5t66.5 -94t4 -111.5l-16 -54l495 4v-249h-913z" />
    <glyph glyph-name="maitriupperleftthai" 
d="M-786 2793l110 209q6 15 6 30.5t-6 29t-17.5 22t-27.5 8.5q-11 0 -22.5 -3t-21 -13.5t-15.5 -30t-6 -51.5h-213q0 58 -17 78t-45 20q-25 0 -39 -19.5t-14 -41.5v-15t6 -23.5t21.5 -30t46.5 -33.5l-164 -160q-42 35 -70 67t-45.5 63.5t-25 64t-7.5 67.5q0 60 23 113
t62.5 92.5t92.5 62.5t113 23q23 0 47.5 -4.5t47 -13.5t42 -22t31.5 -30q25 28 71.5 49t96.5 21q60 0 112.5 -22.5t91.5 -61t62 -91t25 -112.5h270v-237z" />
    <glyph glyph-name="maitriupperleftthai" unicode="&#xf715;" 
d="M-786 2793l110 209q6 15 6 30.5t-6 29t-17.5 22t-27.5 8.5q-11 0 -22.5 -3t-21 -13.5t-15.5 -30t-6 -51.5h-213q0 58 -17 78t-45 20q-25 0 -39 -19.5t-14 -41.5v-15t6 -23.5t21.5 -30t46.5 -33.5l-164 -160q-42 35 -70 67t-45.5 63.5t-25 64t-7.5 67.5q0 60 23 113
t62.5 92.5t92.5 62.5t113 23q23 0 47.5 -4.5t47 -13.5t42 -22t31.5 -30q25 28 71.5 49t96.5 21q60 0 112.5 -22.5t91.5 -61t62 -91t25 -112.5h270v-237z" />
    <glyph glyph-name="maichattawaupperleftthai" 
d="M-586 2957v-180h-258v176h-172v221h172v181h258v-177h172v-221h-172z" />
    <glyph glyph-name="maichattawaupperleftthai" unicode="&#xf716;" 
d="M-586 2957v-180h-258v176h-172v221h172v181h258v-177h172v-221h-172z" />
    <glyph glyph-name="thanthakhatupperleftthai" 
d="M-684 2871q-9 0 -23 -9.5t-14 -31.5q0 -6 1.5 -13.5t8 -17.5t20 -23.5t36.5 -31.5l-172 -168q-42 39 -69 72.5t-42.5 64t-22 59.5t-6.5 58q0 60 21.5 112.5t60 91t90 61t111.5 22.5h287v-246h-287z" />
    <glyph glyph-name="thanthakhatupperleftthai" unicode="&#xf717;" 
d="M-684 2871q-9 0 -23 -9.5t-14 -31.5q0 -6 1.5 -13.5t8 -17.5t20 -23.5t36.5 -31.5l-172 -168q-42 39 -69 72.5t-42.5 64t-22 59.5t-6.5 58q0 60 21.5 112.5t60 91t90 61t111.5 22.5h287v-246h-287z" />
    <glyph glyph-name="maithothai.alt2" 
d="M-710 2773l29.5 44.5l39.5 58.5l42 63l38 59t28 46t11 24q0 74 -57 74q-31 0 -58 -25l-164 164q94 86 218 86q66 0 129 -23.5t108.5 -63t66.5 -92.5t3 -112l-17 -57q10 0 23.5 2t38.5 2h434v-250h-913z" />
    <glyph glyph-name="maitrithai.alt2" 
d="M-228 2777l110 205q7 13 7 29t-6 29.5t-18 22.5t-28 9q-8 0 -19 -2.5t-21 -12t-17.5 -28.5t-7.5 -51h-213q0 29 -4.5 47.5t-12.5 29t-19.5 14t-25.5 3.5q-25 0 -39 -20t-14 -41v-14.5t6 -23t21.5 -29t46.5 -32.5l-164 -159q-42 35 -70 67.5t-45.5 64t-25 63t-7.5 63.5
q0 60 23 112.5t62.5 92t92.5 62.5t113 23q23 0 47.5 -5t47 -13.5t42 -20.5t31.5 -26q25 28 72 46.5t96 18.5q60 0 112.5 -21.5t91.5 -59.5t62 -89.5t25 -111.5h270v-242h-622z" />
    </font>
</defs>
</svg>
