<?xml version="1.0" standalone="no"?>
<!DOCTYPE svg PUBLIC "-//W3C//DTD SVG 1.1//EN" "http://www.w3.org/Graphics/SVG/1.1/DTD/svg11.dtd" >
<svg>
<metadata>
Created by FontForge 20090622 at Mon Oct 12 12:37:14 2015
 By deploy user
Copyright (c) 2010 by Bright Side Co.,Ltd. exclusively for Rangsit University. All rights reserved.
</metadata>
<defs>
<font id="RSU" horiz-adv-x="0" >
  <font-face 
    font-family="RSU"
    font-weight="400"
    font-stretch="normal"
    units-per-em="1000"
    panose-1="2 0 5 6 4 0 0 2 0 3"
    ascent="800"
    descent="-200"
    x-height="410"
    cap-height="548"
    bbox="-599.267 -462 869 937"
    underline-thickness="20"
    underline-position="-113"
    unicode-range="U+0020-U+FB02"
  />
<missing-glyph horiz-adv-x="1000" 
 />
    <glyph glyph-name="uni0E4F.liga" unicode="&#xe4f;&#x22;" horiz-adv-x="520" 
d="M426 200q0 -34 -13 -64t-35 -52.5t-51.5 -35.5t-63.5 -13t-63.5 13t-52 35.5t-35.5 52.5t-13 64t13 63.5t35.5 51.5t52 35t63.5 13t63.5 -13t51.5 -35t35 -51.5t13 -63.5zM401 200q0 28 -10.5 53.5t-29.5 44t-44 29.5t-54 11t-54 -11t-44 -29.5t-29.5 -44t-10.5 -53.5
q0 -29 10.5 -54.5t29.5 -44t44 -29.5t54 -11t54 11t44 29.5t29.5 44t10.5 54.5zM357 200q0 -20 -7.5 -37.5t-20.5 -30t-30 -20t-36 -7.5q-20 0 -37.5 7.5t-30 20.5t-20 30t-7.5 36q0 20 7.5 37.5t20.5 30t30 20t36 7.5q20 0 37.5 -7.5t30 -20.5t20 -30t7.5 -36z" />
    <glyph glyph-name="uni0E24.liga" unicode="&#xe24;&#xe32;" horiz-adv-x="915" 
d="M682 510q58 0 94.5 -16t57 -41t28 -54t7.5 -56v-530q0 -13 -13 -13h-50q-12 0 -12 13v538q0 31 -12.5 49.5t-31.5 28t-42 12.5t-44 3q-20 1 -39.5 -3t-33.5 -9q-18 -6 -32 -13q-11 -5 -19 5l-20 29q-2 4 -1.5 9t5.5 9q19 10 44 19q21 8 50 14t64 6zM477 -186
q0 -13 -13 -13h-53q-5 0 -9 2.5t-4 10.5v510q0 35 -14 56.5t-35 33t-44.5 15.5t-41.5 4q-48 0 -80.5 -9.5t-41.5 -14.5q-5 -3 -6.5 -7.5t-1.5 -8.5v-302q0 -13 13 -13h34q13 0 11 -12l-8 -53q-2 -13 -15 -13h-101q-12 0 -12 13v434q0 13 12 18q39 20 85.5 32t95.5 14
q64 0 108 -16t71 -41t38.5 -55.5t11.5 -59.5v-525z" />
    <glyph glyph-name="uni0E26.liga" unicode="&#xe26;&#xe32;" horiz-adv-x="914" 
d="M682 510q58 0 94.5 -16t57 -41t28 -54t7.5 -56v-530q0 -13 -13 -13h-50q-12 0 -12 13v538q0 31 -12.5 49.5t-31.5 28t-42 12.5t-44 3q-20 1 -39.5 -3t-33.5 -9q-18 -6 -32 -13q-11 -5 -19 5l-20 29q-2 4 -1.5 9t5.5 9q19 10 44 19q21 8 50 14t64 6zM252 511q64 0 108 -16
t71 -41t38.5 -55.5t11.5 -59.5v-525q0 -13 -12 -13h-54q-5 0 -9 2.5t-4 10.5v510q0 35 -14 56.5t-35 33t-44.5 15.5t-41.5 4q-48 0 -80.5 -9.5t-41.5 -14.5q-5 -3 -6.5 -7.5t-1.5 -8.5v-380q0 -13 -13 -13h-100q-13 0 -15 13l-8 52q-2 13 11 13h34q13 0 13 13v356
q0 13 12 18q39 20 85.5 32t95.5 14z" />
    <glyph glyph-name="uni0E5A" unicode="&#xe2f;&#xe2f;" horiz-adv-x="500" 
 />
    <glyph glyph-name="fi" unicode="fi" horiz-adv-x="401" 
d="M391 531q0 -14 -3 -19t-13 -5h-53q-12 0 -15.5 4.5t-3.5 21.5v29q0 14 3.5 18.5t17.5 4.5h51q12 0 14 -6.5t2 -20.5v-27zM391 28q0 -16 -2 -22t-14 -6h-56q-11 0 -13.5 6t-2.5 22v340h-148v-342q0 -26 -18 -26h-49q-9 0 -15.5 4.5t-6.5 15.5v348h-42q-11 0 -14 3.5
t-3 12.5v28q0 18 12 18h39q-5 9 -10 21.5t-4 43.5q0 20 5.5 38t18 31.5t32.5 21.5t49 8q26 0 43.5 -3.5t26.5 -6.5q3 -2 3 -11.5t-2 -21t-5 -20t-6 -8.5q-13 3 -18.5 4t-19.5 1q-16 0 -28 -9t-12 -35q0 -21 7 -32t16 -22h217q15 0 17.5 -5t2.5 -19v-378z" />
    <glyph glyph-name="fl" unicode="fl" horiz-adv-x="400" 
d="M392 28q0 -15 -2 -21.5t-13 -6.5h-53q-13 0 -16.5 5t-3.5 22v546q0 11 3.5 16.5t15.5 5.5h51q14 0 16 -5.5t2 -18.5v-543zM227 375q0 -8 -3 -13t-15 -5h-52v-330q0 -27 -19 -27h-48q-9 0 -16 5t-7 16v336h-41q-11 0 -14.5 3.5t-3.5 13.5v27q0 17 13 17h40q-5 10 -10.5 26
t-4.5 47q0 19 5.5 38t18 33.5t32 23.5t48.5 9q26 0 43.5 -3.5t27.5 -7.5q3 -1 3 -10.5t-2.5 -21t-5.5 -20t-6 -8.5q-12 3 -18 4t-19 1q-17 0 -28.5 -12t-11.5 -37q0 -21 6.5 -36t15.5 -25h54q13 0 15.5 -4t2.5 -12v-28z" />
    <glyph glyph-name=".notdef" horiz-adv-x="1000" 
 />
    <glyph glyph-name=".null" 
 />
    <glyph glyph-name="nonmarkingreturn" horiz-adv-x="195" 
 />
    <glyph glyph-name="space" unicode=" " horiz-adv-x="278" 
 />
    <glyph glyph-name="percent" unicode="%" horiz-adv-x="640" 
d="M592 91q0 -29 -9.5 -48t-25 -30.5t-35 -16.5t-39.5 -5q-53 0 -84.5 24.5t-31.5 75.5v93q0 57 31.5 85t84.5 28q19 0 38.5 -5t35.5 -17.5t25.5 -33t9.5 -51.5v-99zM221 23q-7 -14 -11.5 -18.5t-14.5 -4.5h-35q-13 0 -16 5.5t5 20.5l279 543q7 13 12 17.5t20 4.5h36
q11 0 12 -5t-7 -19zM276 388q0 -29 -9.5 -48t-25 -30.5t-35 -16.5t-39.5 -5q-53 0 -84.5 24.5t-31.5 75.5v94q0 56 31.5 84t84.5 28q19 0 38.5 -5t35.5 -17.5t25.5 -33t9.5 -51.5v-99zM529 175q0 24 -10 42t-35 18q-31 0 -41.5 -17.5t-10.5 -45.5v-74q0 -20 12.5 -34
t37.5 -14q26 0 36.5 15t10.5 31v79zM213 472q0 25 -10 43t-35 18q-31 0 -41.5 -17.5t-10.5 -46.5v-74q0 -21 12.5 -34.5t38.5 -13.5q25 0 35.5 14.5t10.5 31.5v79z" />
    <glyph glyph-name="ampersand" unicode="&#x26;" horiz-adv-x="540" 
d="M512 7q2 -2 1.5 -4.5t-5.5 -2.5h-68q-4 0 -9 2t-7 5l-37 38q-6 6 -14 2q-20 -16 -44 -28q-21 -11 -49 -19t-62 -8q-35 0 -68.5 10t-60 30t-42.5 49.5t-16 67.5t17 66t38 47q25 22 56 38q8 5 2 13q-15 14 -26 32q-10 15 -17.5 35.5t-7.5 44.5q0 30 11.5 54t30.5 40.5
t44.5 25.5t54.5 9q26 0 50 -8.5t42.5 -24t29.5 -37.5t11 -50q0 -32 -17 -57.5t-37 -42.5q-24 -20 -53 -36q-7 -5 -2 -12l117 -128q2 -3 4 -5l3 -3l2 2q1 1 1.5 2t2.5 3l19 23q5 8 13 2l34 -30q7 -5 2 -14l-24 -29q-5 -9 1 -15zM232 495q-29 0 -48.5 -18.5t-19.5 -48.5
q0 -14 6.5 -28.5t14.5 -26.5q10 -14 22 -27q6 -6 15 -3q20 12 37 27q14 13 26 29t12 35q0 28 -19 44.5t-46 16.5zM222 58q16 0 34 5.5t34 12.5q18 8 36 19q7 5 2 12l-129 145q-6 8 -14 2q-21 -13 -37 -29q-14 -14 -25.5 -32t-11.5 -38q0 -23 9 -41t24.5 -30.5t35.5 -19
t42 -6.5z" />
    <glyph glyph-name="quotesingle" unicode="'" horiz-adv-x="188" 
d="M122 475q-2 -13 -6 -17t-12 -4h-20q-8 0 -12 5t-6 22l-14 176q0 14 2 19.5t13 5.5h49q14 0 17 -6.5t3 -21.5z" />
    <glyph glyph-name="parenleft" unicode="(" horiz-adv-x="248" 
d="M166 -95q-17 18 -36 51.5t-35 78.5t-27 99.5t-11 116.5q0 59 10.5 113t27 99t36.5 79t40 53q4 5 17.5 2t26.5 -9.5t21.5 -14.5t3.5 -13q-16 -17 -34 -50t-33 -75t-24.5 -90t-9.5 -94q0 -50 10 -99t24.5 -90t31 -72.5t30.5 -46.5q5 -6 -3.5 -14t-22 -15t-26.5 -10.5
t-17 1.5z" />
    <glyph glyph-name="parenright" unicode=")" horiz-adv-x="252" 
d="M197 251q0 -62 -11 -116.5t-27 -99.5t-35.5 -78.5t-35.5 -51.5q-4 -5 -17 -1.5t-26.5 10.5t-22 15t-3.5 14q14 15 30.5 46.5t31 72.5t24.5 90t10 99q0 46 -9.5 94t-24.5 90t-33 75t-34 50q-5 5 3.5 13t21.5 14.5t26 9.5t18 -2q19 -19 39.5 -53t37 -79t27 -99t10.5 -113z
" />
    <glyph glyph-name="asterisk" unicode="*" horiz-adv-x="300" 
d="M290 490q3 -11 -1.5 -15t-16.5 -6l-81 -20l56 -63q8 -9 9 -13.5t-7 -9.5l-30 -24q-9 -6 -14 -3t-12 14l-43 72l-44 -73q-11 -19 -21 -10l-31 22q-8 7 -7 12.5t9 14.5l55 64l-83 19q-12 3 -15.5 6t-0.5 11l11 36q4 11 10 11.5t17 -4.5l77 -32l-7 84q-1 12 1 16.5t10 4.5
h37q11 0 14 -5.5t2 -17.5l-8 -84l80 34q10 5 15 4.5t7 -8.5l12 -37v0z" />
    <glyph glyph-name="plus" unicode="+" horiz-adv-x="490" 
d="M438 263q0 -12 -7 -14.5t-23 -2.5h-127v-131q0 -16 -2.5 -22t-13.5 -6h-39q-14 0 -17 6.5t-3 22.5v130h-135q-12 0 -16 3t-4 13v37q0 14 5 16.5t19 2.5h131v132q0 12 3.5 17.5t15.5 5.5h37q14 0 16.5 -5t2.5 -19v-131h129q15 0 21.5 -2t6.5 -13v-40v0z" />
    <glyph glyph-name="comma" unicode="," horiz-adv-x="219" 
d="M174 61q-11 -48 -39 -87t-63 -63q-5 -4 -10.5 -3.5t-10 3.5t-6.5 7.5t0 8.5q6 15 12 32t11 34.5t8 34.5t4 31q1 19 15 19h61q14 0 17 -4.5t1 -12.5z" />
    <glyph glyph-name="hyphen" unicode="-" horiz-adv-x="323" 
d="M302 246q0 -13 -5.5 -16.5t-24.5 -3.5h-232q-22 0 -22 17v39q0 14 5.5 16t19.5 2h229q16 0 23 -2t7 -13v-39v0z" />
    <glyph glyph-name="period" unicode="." horiz-adv-x="219" 
d="M163 29q0 -11 -2 -20t-17 -9h-62q-15 0 -20 7.5t-5 18.5v43q0 8 4 15t12 7h65q17 0 21 -5t4 -14v-43v0z" />
    <glyph glyph-name="slash" unicode="/" horiz-adv-x="309" 
d="M94 21q-6 -14 -10.5 -17.5t-14.5 -3.5h-50q-12 0 -15 5t4 19l204 505q5 12 10 16.5t20 4.5h51q11 0 11 -4.5t-5 -17.5z" />
    <glyph glyph-name="zero" unicode="0" horiz-adv-x="511" 
d="M269 -6q-35 0 -70 6.5t-63 24.5t-45.5 50.5t-17.5 84.5v214q0 55 14 91t40 57t62 29.5t80 8.5q37 0 70.5 -7.5t59 -27t40 -54t14.5 -88.5v-206q0 -60 -15.5 -96t-41 -55.5t-58.5 -25.5t-69 -6zM368 364q0 66 -22 94t-76 28q-35 0 -56.5 -7.5t-33.5 -23.5t-16 -39.5
t-4 -56.5v-194q0 -53 30.5 -75.5t76.5 -22.5q24 0 43 5t32 17.5t19.5 34t6.5 54.5v186z" />
    <glyph glyph-name="one" unicode="1" horiz-adv-x="300" 
d="M220 0h-53q-11 0 -14.5 6t-3.5 20v410q0 9 -3 12.5t-12 3.5h-57q-11 0 -14 7q-3 3 -3 7v32q0 9 5 13.5t21 9.5l52 19q14 5 19.5 6.5t15.5 1.5h47q13 0 14.5 -6t1.5 -20v-499q0 -14 -2.5 -18.5t-13.5 -4.5z" />
    <glyph glyph-name="two" unicode="2" horiz-adv-x="511" 
d="M429 0h-343q-5 0 -10.5 3.5t-5.5 14.5v36q0 45 14.5 82t37 66t50 50t52.5 35q24 13 46.5 27.5t40.5 30t29 31t11 32.5q0 38 -26.5 57.5t-77.5 19.5q-49 0 -79.5 -14.5t-47.5 -24.5q-5 -3 -11.5 6.5t-11 23t-5.5 26.5t4 16q9 5 22.5 11.5t33.5 12.5t47 10t64 4
q83 0 131.5 -33.5t48.5 -102.5q0 -34 -15.5 -61.5t-39.5 -50.5t-54 -42t-60 -35q-19 -11 -37 -24.5t-31.5 -30.5t-22.5 -37.5t-10 -46.5q0 -11 5 -14t17 -3h223q14 0 19.5 -2.5t5.5 -10.5v-49q0 -13 -14 -13z" />
    <glyph glyph-name="three" unicode="3" horiz-adv-x="491" 
d="M245 -6q-58 0 -103 12t-66 24q-5 3 -4.5 15t4.5 24.5t9.5 22t10.5 7.5q26 -11 59.5 -21t73.5 -10q49 0 78 22t29 64q0 21 -9.5 38t-26 29t-39 18.5t-47.5 8.5q-11 1 -16.5 2t-5.5 12v33q0 11 7 13t18 3q54 3 86 27.5t32 71.5q0 35 -29 58t-85 23q-32 0 -60.5 -10
t-49.5 -25q-5 -3 -10 5.5t-8.5 21t-4.5 24.5t3 15q9 7 20.5 13.5t28.5 12t40.5 9t55.5 3.5q88 0 134 -36t46 -101q0 -59 -29 -96t-74 -48q48 -14 77.5 -47.5t29.5 -87.5q0 -38 -14 -66t-38 -46.5t-55.5 -28t-67.5 -9.5z" />
    <glyph glyph-name="four" unicode="4" horiz-adv-x="450" 
d="M397 107h-33v-95q0 -7 -3 -9.5t-12 -2.5h-38q-11 0 -16 3t-5 12v92h-239q-9 0 -13 2t-4 10v35q0 9 2 15t6 13l230 340q4 7 11 16t17 9h51q11 0 12 -4.5t1 -14.5v-354h34q8 0 10 -2.5t2 -11.5v-35q0 -9 -2.5 -13.5t-10.5 -4.5zM290 425l-168 -251h168v251z" />
    <glyph glyph-name="five" unicode="5" horiz-adv-x="490" 
d="M238 -6q-42 0 -71.5 5t-49 11t-30.5 12.5t-15 9.5t-3 15.5t5 26t10.5 22.5t13.5 6q17 -8 50 -21t80 -13q52 0 77.5 28.5t25.5 66.5q0 35 -18 59.5t-53 41.5q-23 11 -58 19t-67 11q-13 2 -21.5 10.5t-8.5 24.5v204q0 11 5.5 14.5t11.5 3.5h279q14 0 14 -13v-49
q0 -8 -5.5 -10.5t-19.5 -2.5h-185q-13 0 -17.5 -3t-4.5 -14v-88q0 -6 3.5 -8.5t14.5 -4.5q31 -5 63 -14.5t57 -20.5q46 -21 76 -59.5t30 -101.5q0 -35 -14 -66t-38.5 -53.5t-59.5 -35.5t-77 -13z" />
    <glyph glyph-name="six" unicode="6" horiz-adv-x="501" 
d="M260 0q-41 0 -75.5 9t-60.5 27.5t-40.5 47t-14.5 68.5v226q0 100 46.5 143.5t153.5 43.5q13 0 32 -2t38 -5.5t34.5 -7t22.5 -6.5q6 -3 6 -15.5t-3 -26.5t-8.5 -25t-11.5 -9q-5 1 -15.5 5t-25.5 8t-33 7t-36 3q-38 0 -60.5 -8.5t-34 -23.5t-15 -36t-3.5 -45v-21
q0 -19 11 -10q20 13 45 22t58 9q38 0 69.5 -10.5t54 -33t35 -57.5t12.5 -84q0 -45 -8.5 -80.5t-29.5 -60.5t-56 -38.5t-87 -13.5zM269 305q-38 0 -61.5 -9t-40.5 -23q-11 -11 -11 -19v-84q0 -51 26.5 -73.5t76.5 -22.5q45 0 69.5 26t24.5 93q0 63 -24 87.5t-60 24.5z" />
    <glyph glyph-name="seven" unicode="7" horiz-adv-x="500" 
d="M260 19q-3 -9 -7 -14t-12 -5h-53q-12 0 -17 3t0 15l154 436q5 17 -19 17h-221q-9 0 -12 6t-3 10v42q0 10 3 14t14 4h324q19 0 23.5 -6.5t0.5 -19.5z" />
    <glyph glyph-name="eight" unicode="8" horiz-adv-x="500" 
d="M255 -3q-101 0 -147 38t-46 107q0 27 7 49.5t17.5 40t24 29.5t27.5 17q-26 12 -47 44.5t-21 80.5q0 33 11.5 62t34 50.5t55.5 34t75 12.5q49 0 84.5 -12t58.5 -33.5t34 -50.5t11 -62q0 -25 -7.5 -46.5t-18.5 -37.5t-25.5 -27t-27.5 -15q44 -15 66.5 -52t22.5 -86
q0 -35 -14 -62t-39 -45t-59.5 -27t-76.5 -9zM249 251q-27 0 -46.5 -8t-32 -21t-18.5 -30.5t-6 -36.5q0 -43 29 -64.5t80 -21.5q48 0 75.5 21.5t27.5 64.5q0 40 -28 68t-81 28zM249 490q-44 0 -70 -24.5t-26 -73.5q0 -36 26.5 -57t68.5 -21q48 0 75.5 21.5t27.5 55.5
q0 51 -28 75t-74 24z" />
    <glyph glyph-name="nine" unicode="9" horiz-adv-x="509" 
d="M241 -7q-14 0 -36 2.5t-45 5.5t-42.5 7t-26.5 7q-6 3 -6 15.5t3 26.5t8.5 24.5t11.5 8.5q4 -1 18.5 -5t34 -8t41 -7t39.5 -3q38 0 60.5 8.5t34 24t15 36t3.5 44.5v22q0 17 -11 10q-20 -14 -45 -23t-57 -9q-39 0 -70.5 10.5t-54 33t-34.5 58t-12 84.5q0 44 8.5 80t29.5 61
t55.5 38.5t86.5 13.5q41 0 76 -9t61 -27.5t40.5 -47.5t14.5 -68v-226q0 -50 -11 -86t-35.5 -58.5t-62.5 -33t-92 -10.5zM354 389q0 50 -26.5 72.5t-75.5 22.5q-46 0 -70.5 -25.5t-24.5 -92.5q0 -64 24 -88.5t60 -24.5q39 0 62 9.5t40 23.5q11 8 11 19v84z" />
    <glyph glyph-name="colon" unicode=":" horiz-adv-x="220" 
d="M162 366q0 -12 -4 -18t-16 -6h-60q-14 0 -18.5 4.5t-4.5 12.5v44q0 14 3.5 20.5t15.5 6.5h61q23 0 23 -23v-41zM163 28q0 -10 -2 -19t-17 -9h-61q-16 0 -21.5 7.5t-5.5 17.5v43q0 8 4 15t12 7h67q17 0 20.5 -4.5t3.5 -13.5v-44z" />
    <glyph glyph-name="semicolon" unicode=";" horiz-adv-x="226" 
d="M164 356q0 -9 -3 -17.5t-15 -8.5h-63q-17 0 -21 6t-4 16v44q0 9 3 16.5t14 7.5h67q15 0 18.5 -6t3.5 -16v-42zM161 63q-11 -48 -39 -87t-63 -63q-5 -4 -10.5 -3.5t-10 3.5t-6.5 7.5t0 8.5q14 29 23.5 66.5t11.5 65.5q1 19 15 19h61q14 0 17 -4.5t1 -12.5z" />
    <glyph glyph-name="less" unicode="&#x3c;" horiz-adv-x="422" 
d="M86 235q-14 5 -20 9t-6 14v41q0 14 5 18t19 10l252 96q15 6 21.5 5t6.5 -12v-39q0 -13 -6.5 -17.5t-22.5 -9.5l-195 -69l195 -68q16 -5 22.5 -9.5t6.5 -17.5v-39q0 -12 -6.5 -12.5t-21.5 5.5l-250 95v0z" />
    <glyph glyph-name="equal" unicode="=" horiz-adv-x="451" 
d="M389 345q0 -14 -6 -16.5t-21 -2.5h-279q-13 0 -18 2t-5 16v29q0 13 6.5 15t20.5 2h277q14 0 19.5 -3t5.5 -11v-31zM387 216q0 -14 -6.5 -16t-20.5 -2h-277q-14 0 -19.5 3t-5.5 11v31q0 14 6 16.5t21 2.5h279q14 0 18.5 -2t4.5 -16v-28z" />
    <glyph glyph-name="greater" unicode="&#x3e;" horiz-adv-x="421" 
d="M363 257q0 -10 -6 -14t-20 -9l-250 -95q-15 -6 -21.5 -5.5t-6.5 12.5v39q0 13 6.5 17.5t22.5 9.5l195 68l-195 69q-16 5 -22.5 9.5t-6.5 17.5v39q0 11 6.5 12t21.5 -5l252 -96q14 -6 19 -10t5 -18v-41v0z" />
    <glyph glyph-name="question" unicode="?" horiz-adv-x="352" 
d="M325 465q0 -42 -18.5 -73.5t-40.5 -57.5l-40.5 -49t-18.5 -47v-42q0 -20 -18 -20h-52q-10 0 -14 4t-3 15q-1 11 -1 22q0 10 1 21t3 20q7 25 25.5 47l38 44t35 45t15.5 51q0 80 -76 80q-25 0 -51.5 -12.5t-40.5 -23.5q-5 -3 -11 4.5t-10.5 19.5t-5.5 23.5t5 16.5
q6 4 18 11t28 14t36 11.5t43 4.5q71 0 112 -34.5t41 -94.5zM217 29q0 -11 -2 -20t-17 -9h-61q-16 0 -21.5 7.5t-5.5 18.5v40q0 8 4.5 14.5t12.5 6.5h68q14 0 18 -4.5t4 -12.5v-41z" />
    <glyph glyph-name="at" unicode="@" horiz-adv-x="621" 
d="M467 117q-32 0 -57 13t-34 37q-12 -21 -39 -37t-61 -16q-22 0 -41.5 9t-34.5 28t-23.5 49t-8.5 72q0 75 27 119t79 44q38 0 60.5 -12.5t35.5 -34.5v26q0 14 11 14h38q12 0 14.5 -4.5t2.5 -12.5v-204q0 -17 11 -32.5t34 -15.5q26 0 42 27t16 88q0 52 -16.5 95.5t-47 75
t-73 49t-94.5 17.5q-51 0 -92.5 -18t-71 -50t-45.5 -75t-16 -94q0 -56 16.5 -100t46.5 -74.5t71.5 -47t92.5 -16.5q24 0 47.5 3.5t44.5 8.5t37 11t25 11q5 2 10 -3t8 -13t2.5 -15.5t-5.5 -10.5q-29 -14 -75 -24.5t-95 -10.5q-67 0 -119.5 20.5t-88.5 58t-55 89t-19 113.5
q0 58 21 109t58.5 89t89.5 60t113 22t112.5 -20.5t89 -57t58 -88t20.5 -114.5q0 -81 -34 -119t-88 -38zM366 315q0 9 -3.5 22t-11 24t-20.5 19t-31 8q-32 0 -46 -23t-14 -68v-47q0 -38 14.5 -63.5t47.5 -25.5q15 0 27 7t20.5 16.5t12.5 19t4 15.5v96z" />
    <glyph glyph-name="A" unicode="A" horiz-adv-x="481" 
d="M441 0h-54q-11 0 -13 3.5t-6 15.5l-34 105h-196l-33 -105q-4 -12 -7 -15.5t-13 -3.5h-56q-8 0 -9.5 3.5t3.5 20.5l160 499q5 13 10 18.5t19 5.5h57q14 0 19 -5.5t10 -18.5l160 -499q6 -18 0 -21t-17 -3zM237 440l-78 -250h154z" />
    <glyph glyph-name="B" unicode="B" horiz-adv-x="450" 
d="M245 0h-169q-11 0 -13.5 4t-2.5 15v502q0 13 2 19.5t14 6.5h146q101 0 151.5 -31t50.5 -107q0 -52 -21.5 -85t-61.5 -46q42 -13 67 -42.5t25 -92.5q0 -68 -42 -105.5t-146 -37.5zM219 484h-62q-9 -1 -11.5 -4.5t-2.5 -8.5v-145q0 -8 3 -11t13 -3h63q63 0 89.5 20.5
t26.5 64.5q0 49 -30 68t-89 19zM224 243h-64q-16 0 -16 -15v-151q0 -5 3 -9.5t12 -4.5h62q63 0 94.5 18t31.5 68q0 48 -32.5 71t-90.5 23z" />
    <glyph glyph-name="C" unicode="C" horiz-adv-x="450" 
d="M389 466q-14 6 -37 14.5t-66 8.5q-81 0 -114.5 -31.5t-33.5 -95.5v-194q0 -31 11.5 -51.5t30 -32.5t41.5 -17t46 -5q54 0 83 11l43 16q4 1 8.5 -8.5t7.5 -22.5t4.5 -24t-1.5 -13q-17 -9 -57.5 -18t-94.5 -9q-106 0 -158 44t-52 122v210q0 39 9 73.5t34 60t69.5 40.5
t115.5 15q67 0 98 -12.5t39 -19.5q3 -2 0.5 -12t-7.5 -21.5t-10.5 -20t-8.5 -7.5z" />
    <glyph glyph-name="D" unicode="D" horiz-adv-x="500" 
d="M255 0h-175q-8 0 -14 6t-6 20v497q0 11 3 17.5t14 6.5h152q44 0 83.5 -7.5t69 -27t47 -53.5t17.5 -88v-201q0 -57 -19.5 -90.5t-48 -51t-62 -23t-61.5 -5.5zM359 365q0 61 -35 86t-94 25h-66q-12 0 -15 -3.5t-3 -11.5v-372q0 -8 3.5 -12.5t17.5 -4.5h63q23 0 46 3.5
t41.5 14.5t30 33t11.5 58v184z" />
    <glyph glyph-name="E" unicode="E" horiz-adv-x="450" 
d="M385 0h-292q-8 0 -13 4.5t-5 16.5v501q0 11 2 18t13 7h278q14 0 17.5 -2t3.5 -10v-44q0 -9 -9.5 -10.5t-26.5 -1.5h-175q-13 0 -17 -3.5t-4 -8.5v-129q0 -11 4 -14.5t14 -3.5h156q17 0 21 -2.5t2 -10.5l-5 -42q-2 -12 -14 -13t-23 -1h-131q-13 0 -17.5 -4t-4.5 -13v-147
q0 -13 6 -14.5t17 -1.5h190q16 0 22.5 -3t6.5 -12v-43q0 -8 -5 -10.5t-11 -2.5z" />
    <glyph glyph-name="F" unicode="F" horiz-adv-x="410" 
d="M347 478h-173q-14 0 -17.5 -3.5t-3.5 -8.5v-146q0 -11 4 -14t13 -3h152q17 0 21 -3.5t2 -10.5l-3 -42q-2 -11 -13.5 -12.5t-23.5 -1.5h-132q-11 0 -14.5 -4t-3.5 -14v-202q0 -13 -13 -13h-55q-8 0 -12.5 4.5t-4.5 17.5v501q0 11 2 17.5t13 6.5h268q14 0 17.5 -3t3.5 -9
v-41q0 -10 -6.5 -13t-20.5 -3z" />
    <glyph glyph-name="G" unicode="G" horiz-adv-x="500" 
d="M263 -6q-66 0 -107.5 14.5t-65 39.5t-32.5 58.5t-9 72.5v171q0 42 7 80t31 66.5t69 45.5t120 17q39 0 67.5 -5t48.5 -12t31 -14t15 -11q3 -3 0 -13.5t-8.5 -22t-12.5 -19.5t-11 -5q-14 10 -43 21t-82 11q-37 0 -63.5 -6.5t-44 -23t-26 -43.5t-8.5 -69v-160
q0 -69 27.5 -98t94.5 -29q54 0 80.5 19.5t26.5 75.5v70q0 6 -2 11t-13 5l-54 1q-8 0 -12 1.5t-4 10.5v38q0 5 1.5 9t9.5 4h122q23 0 29 -5.5t6 -25.5v-105q0 -31 -4.5 -62t-23 -56t-56.5 -41t-104 -16z" />
    <glyph glyph-name="H" unicode="H" horiz-adv-x="530" 
d="M454 0h-52q-19 0 -19 22v213q0 11 -2.5 13t-12.5 2h-204q-8 0 -10.5 -2t-2.5 -10v-214q0 -14 -4.5 -19t-18.5 -5h-48q-10 0 -13 6.5t-3 21.5v500q0 11 3 15.5t14 4.5h49q13 0 17 -5t4 -20v-188q0 -14 18 -14h201q13 0 13 13v194q0 20 22 20h48q14 0 16 -4.5t2 -14.5v-505
q0 -14 -3 -19t-14 -5z" />
    <glyph glyph-name="I" unicode="I" horiz-adv-x="202" 
d="M128 0h-52q-11 0 -15 4.5t-4 16.5v510q0 11 4 14t18 3h50q11 0 13.5 -4.5t2.5 -16.5v-510q0 -9 -3 -13t-14 -4z" />
    <glyph glyph-name="J" unicode="J" horiz-adv-x="250" 
d="M127 -12q-22 -11 -43.5 -19t-33.5 -13q-13 -5 -19 9l-18 47q-6 18 13 25l28.5 14t21.5 12q25 14 30.5 34.5t5.5 57.5v373q0 11 2.5 15.5t12.5 4.5h50q14 0 18 -5t4 -20v-401q0 -53 -15 -83t-57 -51z" />
    <glyph glyph-name="K" unicode="K" horiz-adv-x="500" 
d="M456 0h-71q-10 0 -14 3.5t-12 13.5l-179 228l-21 -24v-202q0 -11 -2.5 -15t-13.5 -4h-51q-13 0 -17 5t-4 20v498q0 15 5 19.5t16 4.5h50q12 0 14.5 -3.5t2.5 -17.5v-201l189 209q9 9 12.5 11t12.5 2h62q16 0 21 -3t-6 -13l-209 -229l225 -284q14 -18 -10 -18z" />
    <glyph glyph-name="L" unicode="L" horiz-adv-x="401" 
d="M361 0h-280q-11 0 -13.5 5.5t-2.5 20.5v502q0 11 3 15.5t14 4.5h49q13 0 17 -5.5t4 -19.5v-440q0 -9 4.5 -12t13.5 -3h195q12 0 13.5 -3t1.5 -12v-39q0 -10 -4 -12t-15 -2z" />
    <glyph glyph-name="M" unicode="M" horiz-adv-x="640" 
d="M544 0h-45q-16 0 -20.5 5t-4.5 20v380q0 19 -11 1l-118 -195q-8 -12 -11 -16t-9 -4h-17q-8 0 -11 3.5t-11 17.5l-111 190q-7 11 -10 9.5t-3 -10.5v-382q0 -9 -3 -14t-16 -5h-43q-11 0 -18.5 3.5t-7.5 21.5v498q0 15 5 19.5t15 4.5h52q8 0 14 -2t12 -12l142 -224
q6 -8 11 0l139 222q10 16 25 16h57q13 0 14.5 -6t1.5 -19v-502q0 -11 -3 -15.5t-15 -4.5z" />
    <glyph glyph-name="N" unicode="N" horiz-adv-x="571" 
d="M480 -2l-49 1q-11 0 -16.5 4t-12.5 15l-229 365q-9 14 -13 15.5t-4 -16.5v-356q0 -15 -3 -20.5t-14 -5.5h-44q-6 0 -13.5 2t-7.5 20v501q0 3 1.5 13.5t12.5 10.5h48q10 0 15 -1t8 -2.5t5 -5t5 -7.5l230 -371q8 -14 12.5 -12t4.5 24v351q0 8 2 16.5t10 7.5h53
q11 0 13.5 -5.5t2.5 -19.5v-496q0 -15 -3 -22t-14 -6z" />
    <glyph glyph-name="O" unicode="O" horiz-adv-x="551" 
d="M280 -5q-29 0 -65.5 4.5t-68 20.5t-53 47.5t-21.5 84.5v220q0 101 48.5 144.5t157.5 43.5q43 0 81 -9t65.5 -30t43.5 -56.5t16 -89.5v-200q0 -66 -22.5 -102.5t-54 -53.5t-67 -20.5t-60.5 -3.5zM397 369q0 62 -29 90t-86 28q-70 0 -97 -30.5t-27 -90.5v-195
q0 -29 11 -48.5t28.5 -31.5t39 -17t43.5 -5q24 0 45.5 4.5t37 17t25 35t9.5 59.5v184z" />
    <glyph glyph-name="P" unicode="P" horiz-adv-x="477" 
d="M243 196h-90q-8 0 -10 -2.5t-2 -12.5v-157q0 -15 -4 -19.5t-15 -4.5h-54q-13 0 -14.5 6.5t-1.5 19.5v502q0 11 3.5 15t15.5 4h161q109 0 158.5 -43t49.5 -130t-47 -132.5t-150 -45.5zM228 479h-73q-9 0 -11.5 -4t-2.5 -9v-185q0 -10 3 -12t13 -2h95q42 0 70.5 25.5
t28.5 85.5q0 27 -10 46t-26.5 31.5t-39 18t-47.5 5.5z" />
    <glyph glyph-name="Q" unicode="Q" horiz-adv-x="551" 
d="M489 -99q-7 -15 -23 -9q-10 3 -26.5 12t-36 23.5t-40 33t-37.5 40.5q-14 -1 -26 -1.5t-22 -0.5q-29 0 -65.5 4.5t-68 20.5t-53 47.5t-21.5 84.5v220q0 101 48 144.5t157 43.5q44 0 82 -9t65.5 -30t43.5 -56.5t16 -89.5v-200q0 -64 -18.5 -99t-49.5 -51q9 -11 31 -29
t48 -29q19 -5 11 -26zM394 373q0 62 -29 90t-86 28q-70 0 -97 -30.5t-27 -90.5v-195q0 -29 11 -48.5t28.5 -31.5t39.5 -17t44 -5q24 0 45 4.5t36.5 17t25 35.5t9.5 59v184z" />
    <glyph glyph-name="R" unicode="R" horiz-adv-x="510" 
d="M353 249q-8 -2 -9 -3t2 -8l109 -211q8 -16 6.5 -21.5t-13.5 -5.5h-63q-11 0 -14 5t-8 16l-101 200q-4 7 -13 7h-82q-6 0 -7 -2t-1 -10v-192q0 -14 -4 -19t-15 -5h-54q-13 0 -14.5 6.5t-1.5 20.5v501q0 11 3.5 15.5t15.5 4.5h161q106 0 157 -42t51 -118q0 -29 -10 -53
t-26 -41.5t-34.5 -29t-34.5 -15.5zM246 480h-73q-9 -1 -11.5 -5t-2.5 -9v-152q0 -11 3 -13t13 -2h96q42 0 70.5 22t28.5 67q0 26 -10 43.5t-27 28.5t-39.5 15.5t-47.5 4.5z" />
    <glyph glyph-name="S" unicode="S" horiz-adv-x="460" 
d="M212 -5q-69 0 -110.5 10t-56.5 21q-3 2 -3 14t2 25.5t6 23.5t9 9q16 -5 48.5 -16t92.5 -11q27 0 50.5 4t41 13t27.5 23.5t10 36.5q0 35 -24 58t-87 46q-31 12 -58.5 26t-48 33.5t-32.5 46t-12 62.5q0 29 11 55t35 45t61 30t88 11q36 0 60 -2t39 -4.5t24 -5t15 -4.5t6 -14
t-3.5 -25t-9.5 -23.5t-12 -8.5q-17 5 -48.5 11t-62.5 6q-64 0 -88.5 -19.5t-24.5 -51.5q0 -34 26 -54t83 -40q80 -31 118.5 -72t38.5 -103q0 -46 -18 -76t-47.5 -48t-67.5 -25t-78 -7z" />
    <glyph glyph-name="T" unicode="T" horiz-adv-x="449" 
d="M417 478h-131q-12 0 -15.5 -2.5t-3.5 -11.5v-439q0 -15 -3 -20t-16 -5h-51q-13 0 -14.5 4t-1.5 21v439q0 9 -3.5 11.5t-14.5 2.5h-130q-11 0 -14 3t-3 8v46q0 8 5 10t17 2h373q11 0 16.5 -1t5.5 -9v-48q0 -5 -2.5 -8t-13.5 -3z" />
    <glyph glyph-name="U" unicode="U" horiz-adv-x="491" 
d="M243 -7q-33 0 -67.5 8t-62 27t-45 51t-17.5 81v371q0 19 13 19h52q11 0 15.5 -5t4.5 -19v-338q0 -58 29.5 -89t77.5 -31q33 0 54 8.5t33 24.5t17 38.5t5 50.5v341q0 19 13 19h54q10 0 14.5 -5t4.5 -19v-353q0 -59 -18.5 -94.5t-47 -54.5t-63 -25t-66.5 -6z" />
    <glyph glyph-name="V" unicode="V" horiz-adv-x="497" 
d="M304 17q-3 -9 -7.5 -13t-15.5 -4h-65q-13 0 -17.5 4.5t-6.5 13.5l-163 505q-5 18 1 21.5t15 3.5h54q11 0 13.5 -4t6.5 -16l133 -421l132 421q4 12 6.5 16t10.5 4h50q11 0 16 -3t1 -13z" />
    <glyph glyph-name="W" unicode="W" horiz-adv-x="731" 
d="M541 16q-3 -9 -7 -12.5t-16 -3.5h-61q-13 0 -17.5 4t-7.5 14l-68 210l-75 -211q-3 -10 -7 -13.5t-16 -3.5h-57q-12 0 -16.5 4.5t-7.5 13.5l-162 505q-6 18 0 21.5t16 3.5h53q11 0 13.5 -4t7.5 -16l132 -421l81 233l-58 183q-6 18 -0.5 21.5t15.5 3.5h54q11 0 13 -4t7 -16
l132 -422l133 422q4 12 6.5 16t10.5 4h49q11 0 16 -3t2 -13z" />
    <glyph glyph-name="X" unicode="X" horiz-adv-x="520" 
d="M481 0h-63q-11 0 -18.5 6t-15.5 18l-124 186l-6 -8l-15.5 -21l-21.5 -30l-24 -34l-67 -93q-11 -17 -16 -20.5t-13 -3.5h-56q-15 0 -16.5 5t9.5 19l88 124l32.5 45.5t28.5 39.5l28 39l-172 253q-15 22 8 22h59q12 0 19.5 -4.5t17.5 -20.5l122 -180l121 180q11 16 17 20.5
t20 4.5h49q13 0 14 -5.5t-7 -16.5l-166 -245l176 -256q9 -14 6.5 -19t-14.5 -5z" />
    <glyph glyph-name="Y" unicode="Y" horiz-adv-x="490" 
d="M288 225v-208q0 -17 -18 -17h-55q-15 0 -15 15v211l-175 307q-7 10 -3 12.5t14 2.5h61q8 0 12 -3t10 -13l130 -230l64 116l64 115q5 8 8.5 11.5t15.5 3.5h48q13 0 16 -3.5t-5 -16.5l-86 -152l-31.5 -56l-28 -48t-19.5 -34z" />
    <glyph glyph-name="Z" unicode="Z" horiz-adv-x="482" 
d="M416 0h-370q-14 0 -14 9v23q0 7 4.5 15t9.5 16l262 414h-237q-17 0 -24.5 3.5t-5.5 14.5l2 39q1 7 3.5 10.5t16.5 3.5h343q7 0 12.5 -2t5.5 -7v-23q0 -5 -6.5 -17t-9.5 -17l-259 -411h260q17 0 23 -2.5t6 -10.5v-43q0 -8 -4 -11.5t-18 -3.5z" />
    <glyph glyph-name="bracketleft" unicode="[" horiz-adv-x="251" 
d="M228 -57q0 -8 -4 -10.5t-14 -2.5h-139q-12 0 -16.5 4t-4.5 15v653q0 11 3 14t17 3h139q13 0 16 -3t3 -11v-39q0 -15 -19 -15h-55q-10 0 -13 -3.5t-3 -11.5v-523q0 -14 16 -14h59q10 0 12.5 -4.5t2.5 -11.5v-40v0z" />
    <glyph glyph-name="backslash" unicode="\" horiz-adv-x="308" 
d="M8 528q-5 13 -5 17.5t11 4.5h51q15 0 20 -4.5t10 -16.5l204 -505q7 -14 4 -19t-15 -5h-50q-10 0 -14.5 3.5t-10.5 17.5z" />
    <glyph glyph-name="bracketright" unicode="]" horiz-adv-x="251" 
d="M41 -69q-10 0 -14 2.5t-4 10.5v40q0 7 2.5 11.5t12.5 4.5h59q16 0 16 14v523q0 8 -3 11.5t-13 3.5h-55q-19 0 -19 15v39q0 8 3 11t16 3h139q14 0 17 -3t3 -14v-653q0 -11 -4.5 -15t-16.5 -4h-139v0z" />
    <glyph glyph-name="asciicircum" unicode="^" horiz-adv-x="300" 
d="M276 460q5 -12 4.5 -17t-10.5 -5h-31q-11 0 -14 6t-8 17l-67 157l-68 -157q-4 -11 -7.5 -17t-13.5 -6h-31q-10 0 -10.5 5t4.5 17l88 200q5 10 8.5 16t10.5 6h33q10 0 13.5 -4.5t8.5 -15.5l90 -202v0z" />
    <glyph glyph-name="underscore" unicode="_" horiz-adv-x="399" 
d="M399 -50q0 -13 -5.5 -16.5t-24.5 -3.5h-348q-12 0 -16.5 3.5t-4.5 12.5v16q0 14 5 16.5t19 2.5h344q16 0 23.5 -2.5t7.5 -13.5v-15v0z" />
    <glyph glyph-name="grave" unicode="`" horiz-adv-x="300" 
d="M225 535q16 -21 -4 -21h-31q-8 0 -14 4.5t-11 10.5l-100 103q-11 11 -10.5 16.5t17.5 5.5h56q10 0 14.5 -4t10.5 -12l72 -103v0z" />
    <glyph glyph-name="a" unicode="a" horiz-adv-x="431" 
d="M356 0h-43q-9 0 -14 3.5t-5 18.5v32q-12 -25 -48 -43.5t-83 -18.5q-30 0 -55 11.5t-43 37t-28 65.5t-10 97q0 102 32.5 160.5t102.5 58.5q52 0 83 -17t49 -46v33q0 19 14 19h44q17 0 20 -5.5t3 -17.5v-358q0 -15 -2.5 -22.5t-16.5 -7.5zM287 267q0 12 -5 29t-15.5 32
t-27 25.5t-40.5 10.5q-42 0 -63.5 -29.5t-21.5 -97.5v-64q0 -57 21.5 -90t64.5 -33q21 0 37 9t27 21.5t17 25.5t6 21v140z" />
    <glyph glyph-name="b" unicode="b" horiz-adv-x="459" 
d="M278 -9q-92 0 -134 52v-22q0 -15 -5 -18t-14 -3h-43q-14 0 -17 7.5t-3 22.5v515q0 12 3.5 17.5t20.5 5.5h43q9 0 12 -6.5t3 -18.5v-181q38 60 132 60q69 0 102 -58.5t33 -160.5q0 -57 -10 -97.5t-27.5 -66t-42 -37t-53.5 -11.5zM323 237q0 57 -21 92t-63 35q-24 0 -41 -9
t-27.5 -23t-15.5 -30.5t-5 -31.5v-151q0 -8 6 -19.5t17 -22.5t27 -19t36 -8q44 0 65.5 33t21.5 90v64z" />
    <glyph glyph-name="c" unicode="c" horiz-adv-x="403" 
d="M226 -8q-47 0 -82.5 10t-59.5 34.5t-36 65.5t-12 102q0 60 13 101.5t38 68t61 38t82 11.5q51 0 87.5 -13.5t59.5 -43.5q4 -6 -4.5 -16t-21 -18t-24.5 -12t-15 1q-12 19 -31.5 31t-51.5 12q-45 0 -74 -29t-29 -92v-75q0 -62 30 -89.5t73 -27.5q27 0 48 14t34 34
q3 6 14.5 4.5t24 -6.5t21.5 -12.5t7 -12.5q-21 -38 -58.5 -59t-93.5 -21z" />
    <glyph glyph-name="d" unicode="d" horiz-adv-x="444" 
d="M376 0h-43q-9 0 -14 3t-5 19v21q-23 -26 -55 -39t-79 -13q-30 0 -54.5 11.5t-42 37t-27 66t-9.5 97.5q0 102 32.5 160.5t102.5 58.5q47 0 78 -14t54 -46v181q0 25 14 25h44q17 0 20.5 -5.5t3.5 -17.5v-515q0 -15 -3 -22.5t-17 -7.5zM307 270q0 15 -5 31.5t-15.5 30.5
t-27 23t-40.5 9q-42 0 -63.5 -35t-21.5 -92v-64q0 -57 22 -90t65 -33q21 0 37 8t27 19t16.5 22.5t5.5 19.5v151z" />
    <glyph glyph-name="e" unicode="e" horiz-adv-x="450" 
d="M367 183h-235q0 -67 32.5 -95.5t89.5 -28.5q50 0 79 6.5t40 9.5q22 9 22 -7v-38q0 -10 -5 -14t-21 -9q-5 -1 -17.5 -3l-29 -4.5t-35.5 -4t-37 -1.5q-104 0 -153 48.5t-49 162.5q0 110 43.5 165t135.5 55q85 0 129 -42t44 -120v-47q0 -17 -5 -25t-28 -8zM225 370
q-24 0 -41 -9t-28 -24.5t-16 -36t-5 -43.5q0 -8 1 -12t9 -4h163q6 0 7 3.5t1 11.5q-1 55 -21 84.5t-70 29.5z" />
    <glyph glyph-name="f" unicode="f" horiz-adv-x="276" 
d="M223 341h-53v-315q0 -26 -18 -26h-42q-9 0 -15.5 4.5t-6.5 15.5v321h-42q-11 0 -14.5 3.5t-3.5 12.5v26q0 17 13 17h40q-5 9 -10.5 24.5t-4.5 44.5q0 19 5.5 36.5t18 31.5t33 22.5t49.5 8.5q26 0 43.5 -3t26.5 -6q3 -2 3 -11t-2 -20t-5 -19.5t-6 -8.5q-13 3 -18.5 4.5
t-19.5 1.5q-17 0 -32.5 -11.5t-15.5 -35.5q0 -20 7 -34.5t16 -24.5h54q13 0 15.5 -3.5t2.5 -11.5v-27q0 -7 -3 -12t-15 -5z" />
    <glyph glyph-name="g" unicode="g" horiz-adv-x="427" 
d="M226 -155q-57 0 -84.5 4.5t-41.5 6.5q-11 3 -17 6t-6 14v39q0 8 5.5 9.5t25.5 -3.5q22 -5 49.5 -10.5t59.5 -5.5q44 0 65 28.5t23 94.5q0 4 -0.5 14t-0.5 14q-22 -29 -53 -42.5t-77 -13.5q-31 0 -56 11.5t-43 37.5t-27.5 67t-9.5 100q0 49 8 88.5t24 67.5t41 43.5
t58 15.5q39 0 75 -12t60 -43q0 29 4 36.5t16 7.5h41q16 0 18 -7.5t2 -20.5v-325q0 -61 -9 -103t-28 -68.5t-49.5 -38.5t-72.5 -12zM298 277q0 15 -5 31.5t-15.5 30.5t-27 23.5t-40.5 9.5q-42 0 -63.5 -35.5t-21.5 -93.5v-64q0 -56 21 -88t65 -32q21 0 37 8t27.5 19t17 23.5
t5.5 20.5v147z" />
    <glyph glyph-name="h" unicode="h" horiz-adv-x="430" 
d="M364 0h-50q-17 0 -17 28v243q0 30 -17 53t-59 23q-22 0 -38.5 -8.5t-28 -21.5t-17 -28.5t-5.5 -29.5v-232q0 -15 -3 -21t-12 -6h-48q-12 0 -15.5 6t-3.5 21v509q0 11 3.5 17.5t15.5 6.5h48q8 0 12 -4.5t4 -19.5v-173q23 27 50 42.5t77 15.5q52 0 86 -29.5t34 -102.5v-254
q0 -19 -2.5 -27t-13.5 -8z" />
    <glyph glyph-name="i" unicode="i" horiz-adv-x="182" 
d="M113 485h-45q-12 0 -16 4t-4 21v27q0 14 4 18.5t18 4.5h43q13 0 15 -7t2 -19v-26q0 -14 -3.5 -18.5t-13.5 -4.5v0zM113 0h-48q-11 0 -14 6t-3 21v361q0 12 3.5 17.5t15.5 5.5h43q15 0 17.5 -5t2.5 -18v-361q0 -15 -2.5 -21t-14.5 -6z" />
    <glyph glyph-name="j" unicode="j" horiz-adv-x="179" 
d="M44 -159q-24 0 -43.5 4t-29.5 7q-3 1 -3 10.5t2 21t5 20t7 8.5q8 -2 18 -3.5t21 -1.5q16 0 20.5 14t4.5 29v437q0 13 4 19.5t18 6.5h43q20 0 20 -25v-450q0 -20 -4 -38t-13.5 -31t-26.5 -20.5t-43 -7.5zM111 487h-43q-12 0 -16 4t-4 21v26q0 14 4 19t18 5h40q15 0 16 -5
t1 -18v-29q0 -14 -2.5 -18.5t-13.5 -4.5z" />
    <glyph glyph-name="k" unicode="k" horiz-adv-x="371" 
d="M346 0h-63q-8 0 -14 5.5t-15 15.5l-135 156v-148q0 -15 -2.5 -22t-13.5 -7h-42q-14 0 -18.5 6.5t-4.5 21.5v518q0 11 4 17t16 6h42q14 0 16.5 -5.5t2.5 -17.5v-297l131 145q5 5 10 11.5t13 6.5h64q14 0 14 -5t-9 -16l-159 -177l172 -197q8 -10 5 -13.5t-14 -3.5z" />
    <glyph glyph-name="l" unicode="l" horiz-adv-x="166" 
d="M108 0h-45q-13 0 -17 4.5t-4 20.5v523q0 10 4 15t16 5h43q14 0 16.5 -5t2.5 -18v-518q0 -15 -2.5 -21t-13.5 -6z" />
    <glyph glyph-name="m" unicode="m" horiz-adv-x="651" 
d="M581 0h-46q-13 0 -16.5 6.5t-3.5 20.5v244q0 15 -2.5 28.5t-10 24t-20.5 17t-34 6.5q-20 0 -33.5 -6.5t-23.5 -17.5t-15.5 -24.5t-8.5 -27.5v-236q0 -19 -3.5 -27t-14.5 -8h-48q-17 0 -17 27v244q0 15 -3 28.5t-10.5 24t-20.5 17t-34 6.5q-23 0 -39 -8.5t-25.5 -21.5
t-13.5 -28.5t-4 -29.5v-230q0 -15 -2.5 -22t-13.5 -7h-43q-14 0 -18.5 6.5t-4.5 21.5v360q0 11 4 17t16 6h44q10 0 14.5 -8t4.5 -35q21 27 47 39.5t69 12.5q38 0 62 -15t41 -53q23 32 53 50t75 18q25 0 46.5 -6.5t37 -22t24 -40.5t8.5 -62v-254q0 -19 -3 -27t-14 -8z" />
    <glyph glyph-name="n" unicode="n" horiz-adv-x="421" 
d="M360 0h-45q-20 0 -20 27v244q0 30 -17 52.5t-59 22.5q-23 0 -40 -8.5t-28 -21t-16 -28t-5 -29.5v-230q0 -15 -2.5 -22t-14.5 -7h-43q-13 0 -17.5 6.5t-4.5 21.5v360q0 11 3.5 17t15.5 6h44q11 0 15 -11t4 -37q21 27 51.5 42t76.5 15q52 0 86 -29t34 -102v-254
q0 -19 -3.5 -27t-14.5 -8z" />
    <glyph glyph-name="o" unicode="o" horiz-adv-x="452" 
d="M230 -5q-47 0 -82.5 10t-59 34.5t-35.5 65.5t-12 102q0 60 13 101.5t38 67.5t61 37.5t81 11.5q90 0 135 -50t45 -168q0 -103 -46.5 -157.5t-137.5 -54.5zM330 249q0 51 -22 84t-77 33q-45 0 -73.5 -28.5t-28.5 -91.5v-75q0 -63 30 -90t73 -27q46 0 72 34.5t26 91.5v69z
" />
    <glyph glyph-name="p" unicode="p" horiz-adv-x="450" 
d="M272 0q-46 0 -77 12.5t-53 38.5v-177q0 -14 -3.5 -19.5t-11.5 -5.5h-45q-15 0 -18.5 5.5t-3.5 19.5v518q0 13 2.5 20.5t18.5 7.5h41q20 0 20 -22v-28q23 31 57.5 45.5t77.5 14.5q67 0 99 -58t32 -156q0 -59 -9.5 -100t-27.5 -67t-43 -37.5t-56 -11.5zM321 243
q0 58 -22 93.5t-63 35.5q-24 0 -40.5 -9.5t-27 -23.5t-15.5 -30.5t-5 -31.5v-149q0 -8 6 -19.5t17 -22.5t27 -19t37 -8q44 0 65 32t21 88v64z" />
    <glyph glyph-name="q" unicode="q" horiz-adv-x="440" 
d="M371 -152h-46q-8 0 -11 3t-3 14v186q-23 -28 -56 -39.5t-75 -11.5q-31 0 -56 11.5t-43 37.5t-27.5 66.5t-9.5 99.5q0 49 8 88.5t24 67.5t41 43.5t58 15.5q43 0 76 -14t60 -46v28q0 11 3 16t14 5h43q16 0 18.5 -5.5t2.5 -17.5v-527q0 -11 -3.5 -16t-17.5 -5zM304 276
q0 15 -5 31.5t-15.5 31t-27 24t-40.5 9.5q-41 0 -63 -36t-22 -93v-64q0 -57 21 -88.5t65 -31.5q21 0 37 7.5t27.5 18t17 21.5t5.5 19v151z" />
    <glyph glyph-name="r" unicode="r" horiz-adv-x="279" 
d="M261 360q-3 -11 -12 -11q-17 0 -34.5 -4t-31.5 -12q-28 -16 -44.5 -35.5t-16.5 -38.5v-230q0 -15 -2.5 -22t-13.5 -7h-43q-14 0 -18 7t-4 21v360q0 11 3.5 17t15.5 6h44q8 0 13.5 -4t5.5 -15v-39q24 32 57 48t70 16q5 0 9.5 -1t3.5 -8z" />
    <glyph glyph-name="s" unicode="s" horiz-adv-x="334" 
d="M161 -7q-60 0 -93.5 9t-45.5 15q-3 1 -4 11t0.5 21t5.5 19.5t10 6.5l36 -11.5t71 -7.5q39 0 60.5 12.5t21.5 41.5q0 23 -20.5 42.5t-61.5 39.5q-23 11 -42.5 23t-34 26t-23 32t-8.5 41q0 28 12 49t32 34.5t47.5 20t57.5 6.5q45 0 73 -5t36 -8q3 -2 2.5 -11t-3.5 -19.5
t-8 -19t-10 -7.5q-11 3 -36 7.5t-48 4.5q-72 0 -72 -49q0 -18 22 -33.5t54 -31.5q28 -14 50 -28.5t36.5 -31.5t22 -38t7.5 -48q0 -35 -13 -57t-33.5 -34.5t-47 -17t-53.5 -4.5z" />
    <glyph glyph-name="t" unicode="t" horiz-adv-x="270" 
d="M230 346h-74v-247q0 -41 34 -41q13 0 21 1t20 4q3 0 6 -8.5t4 -19t1 -20t-3 -10.5q-10 -3 -31.5 -6t-44.5 -3q-29 0 -47 8.5t-28.5 22.5t-14 32t-3.5 37v251h-40q-8 0 -10.5 4t-2.5 12v29q0 10 3 13t15 3h38v76q0 11 6.5 14.5t16.5 4.5l36 8q13 2 17 -3t4 -16v-84h78
q11 0 14.5 -4.5t3.5 -12.5v-29q0 -8 -3 -12t-16 -4z" />
    <glyph glyph-name="u" unicode="u" horiz-adv-x="441" 
d="M365 0h-44q-11 0 -15 10.5t-4 36.5q-27 -29 -57 -42t-72 -13q-24 0 -46 7t-38.5 22.5t-26 40t-9.5 60.5v262q0 14 4 20.5t15 6.5h45q21 0 21 -28v-243q0 -31 16.5 -53t57.5 -22q23 0 40 8t28 21t16.5 28.5t5.5 29.5v230q0 15 2.5 22t14.5 7h43q13 0 17 -7t4 -21v-360
q0 -11 -3 -17t-15 -6z" />
    <glyph glyph-name="v" unicode="v" horiz-adv-x="409" 
d="M247 23q-5 -15 -11 -19t-17 -4h-43q-12 0 -18.5 6.5t-9.5 14.5l-131 373q-7 17 16 17h47q9 0 14 -5t7 -13l106 -297l112 297q2 5 7.5 11.5t12.5 6.5h39q12 0 14 -4t-3 -16z" />
    <glyph glyph-name="w" unicode="w" horiz-adv-x="550" 
d="M417 23q-6 -15 -12 -19t-17 -4h-35q-12 0 -18.5 6.5t-9.5 15.5l-48 172l-61 -171q-6 -15 -12 -19t-17 -4h-33q-12 0 -18.5 6.5t-9.5 15.5l-110 373q-4 10 1 13.5t15 3.5h46q9 0 13.5 -5.5t7.5 -13.5l82 -299l62 197l-31 104q-5 17 17 17h45q9 0 14 -5.5t8 -13.5l81 -299
l85 299q3 6 8.5 12.5t12.5 6.5h37q13 0 15 -4.5t-3 -15.5z" />
    <glyph glyph-name="x" unicode="x" horiz-adv-x="360" 
d="M335 0h-50q-14 0 -19.5 5.5t-15.5 20.5l-70 116l-81 -116q-10 -17 -15.5 -21.5t-16.5 -4.5h-45q-12 0 -12.5 6t9.5 21l119 176l-116 186q-8 12 -7.5 17.5t16.5 5.5h54q10 0 15.5 -6t13.5 -19l69 -114l71 114q8 13 14 19t16 6h43q17 0 17 -5.5t-7 -17.5l-113 -176
l117 -186q9 -15 7 -21t-13 -6z" />
    <glyph glyph-name="y" unicode="y" horiz-adv-x="401" 
d="M180 -135q-5 -11 -11 -15t-16 -4h-27q-19 0 -12 17l51 136l-149 394q-8 17 16 17h57q9 0 10 -5t3 -13l104 -282l105 282q3 5 8.5 11.5t12.5 6.5h41q13 0 15 -4.5t-3 -15.5z" />
    <glyph glyph-name="z" unicode="z" horiz-adv-x="380" 
d="M339 0h-283q-14 0 -21 3.5t-8.5 9t1 12t6.5 12.5l198 316h-178q-12 0 -16 2t-4 14v27q0 10 4.5 12.5t12.5 2.5h268q12 0 22 -5.5t0 -20.5l-205 -327h201q11 0 16 -2t5 -15v-25q0 -11 -4 -13.5t-15 -2.5z" />
    <glyph glyph-name="braceleft" unicode="{" horiz-adv-x="300" 
d="M261 -58q0 -11 -16 -11h-44q-44 0 -71 26.5t-22 85.5l11 128q2 31 -20.5 53.5t-57.5 27.5q-11 2 -11 12v47q0 8 11 10q33 4 57 24.5t21 52.5l-11 111q-5 50 19.5 80.5t81.5 30.5h38q14 0 14 -13v-43q0 -11 -14 -11h-17q-18 0 -31.5 -11.5t-11.5 -36.5l12 -123
q1 -18 -6.5 -34t-20 -28.5t-28 -20.5t-31.5 -10q16 -3 32 -12.5t28.5 -23.5t19.5 -32t6 -37l-11 -128q-2 -30 8.5 -43t29.5 -13h24q7 0 9 -3.5t2 -7.5v-47v0z" />
    <glyph glyph-name="bar" unicode="|" horiz-adv-x="288" 
d="M183 -178q0 -14 -2.5 -18t-12.5 -4h-41q-14 0 -18.5 4.5t-4.5 20.5v742q0 13 3.5 18t18.5 5h43q11 0 12.5 -5t1.5 -19v-744v0z" />
    <glyph glyph-name="braceright" unicode="}" horiz-adv-x="301" 
d="M55 -69q-16 0 -16 11v47q0 4 2 7.5t9 3.5h24q19 0 29.5 13t8.5 43l-11 128q-1 19 6 37t19.5 32t28.5 23.5t32 12.5q-16 2 -31.5 10t-28 20.5t-20 28.5t-6.5 34l12 123q2 25 -11.5 36.5t-31.5 11.5h-17q-14 0 -14 11v43q0 13 14 13h38q57 0 81.5 -30.5t19.5 -80.5
l-11 -111q-3 -32 21 -52.5t57 -24.5q11 -2 11 -10v-47q0 -10 -11 -12q-35 -5 -57.5 -27.5t-20.5 -53.5l11 -128q4 -59 -22.5 -85.5t-70.5 -26.5h-44v0z" />
    <glyph glyph-name="asciitilde" unicode="~" horiz-adv-x="349" 
d="M324 267q-18 -35 -41 -60.5t-57 -25.5q-14 0 -28.5 7.5t-28.5 16l-27 16t-24 7.5q-14 0 -27 -9.5t-20 -21.5q-3 -6 -5.5 -6t-6.5 2l-32 16q-7 1 -4 10q5 12 13.5 26t20.5 26t26.5 20t31.5 8q13 0 28 -7t30 -16t29 -16t25 -7q17 0 28 11t18 24q5 8 12 5l35 -13q9 -4 4 -13
z" />
    <glyph glyph-name="uni0E33.alt1" horiz-adv-x="381" 
d="M-288 729q35 0 59 -24t24 -59q0 -34 -24 -58t-59 -24t-59 24t-24 58q0 35 24 59t59 24zM-288 613q14 0 23.5 10t9.5 24t-9.5 23.5t-23.5 9.5t-23.5 -9.5t-9.5 -23.5t9.5 -24t23.5 -10zM150 507q58 0 94.5 -16t56.5 -41t27.5 -54t7.5 -56v-328q0 -12 -13 -12h-49
q-13 0 -13 12v336q0 31 -12.5 49.5t-31 28t-41.5 12.5t-44 3q-21 1 -40 -2.5t-34 -8.5q-18 -5 -32 -13q-5 -3 -10.5 -2t-8.5 6l-9 15l-10 14q-3 4 -2.5 9t5.5 9q19 10 44 19q21 8 50.5 14t64.5 6z" />
    <glyph glyph-name="quotedbl" unicode="&#x22;" horiz-adv-x="301" 
d="M245 479q-1 -16 -5.5 -20.5t-11.5 -4.5h-20q-9 0 -13 4t-6 18l-13 179q-1 14 2 20.5t15 6.5h50q11 0 14 -6t2 -21zM112 475q-1 -14 -5.5 -17.5t-12.5 -3.5h-21q-8 0 -11.5 5t-5.5 21l-13 176q-2 14 0.5 20t13.5 6h50q13 0 16.5 -7t1.5 -21z" />
    <glyph glyph-name="exclam" unicode="!" horiz-adv-x="200" 
d="M133 0h-62q-16 0 -19 6t-3 14v42q0 8 3 13.5t14 5.5h64q15 0 19 -3t4 -14v-41q0 -11 -3 -17t-17 -6zM134 183q0 -14 -3 -18.5t-11 -4.5h-31q-14 0 -17 4t-4 20l-10 333q0 13 2.5 20t16.5 7h47q14 0 17.5 -6t2.5 -19z" />
    <glyph glyph-name="uni0E4E.alt1" 
 />
    <glyph glyph-name="exclamdown" unicode="&#xa1;" horiz-adv-x="271" 
d="M96 489h73q19 0 22.5 -7t3.5 -18v-49q0 -9 -3.5 -15.5t-16.5 -6.5h-76q-17 0 -22 3.5t-5 17.5v48q0 12 4 19.5t20 7.5zM95 272q0 16 3.5 22t12.5 6h37q17 0 20.5 -4.5t4.5 -24.5l12 -393q0 -14 -3 -23t-20 -9h-56q-16 0 -20 7.5t-3 22.5z" />
    <glyph glyph-name="sterling" unicode="&#xa3;" horiz-adv-x="548" 
d="M476 14q0 -8 -10.5 -13t-25.5 -8t-33 -4t-33 -1q-23 0 -51 2t-55 5t-50 5t-35 2q-32 0 -52.5 -2t-40.5 -6q-14 -4 -18.5 4.5t1.5 25.5q23 66 37 128t16 134h-54q-14 0 -19.5 4t-5.5 15v37q0 17 6 19.5t22 2.5h48q-3 31 -9 62.5t-6 63.5q0 43 13 78.5t38 61t62.5 40
t87.5 14.5q67 0 105.5 -15.5t59.5 -31.5q6 -5 5 -19.5t-5.5 -29.5t-11 -25.5t-12.5 -6.5q-24 18 -55 29t-69 11q-54 0 -83 -30.5t-29 -90.5q0 -26 5.5 -56t8.5 -55h90q18 0 26.5 -2.5t8.5 -15.5v-37q0 -15 -6 -19t-28 -4h-89q-2 -63 -11.5 -107t-21.5 -79q-2 -5 0.5 -8
t12.5 -4q31 -1 63 -4.5t73 -3.5q35 0 68 5t43 10q14 4 16.5 -1t2.5 -15v-65v0z" />
    <glyph glyph-name="currency" unicode="&#xa4;" horiz-adv-x="660" 
d="M536 19l-75 74q-27 -20 -60 -32t-71 -12t-71.5 12t-60.5 32l-74 -74l-46 46l74 74q-20 27 -32 60.5t-12 71.5t12 71.5t32 60.5l-74 73l46 46l74 -73q27 20 60.5 31.5t71.5 11.5t71 -11.5t60 -31.5l75 73l46 -46l-74 -73q20 -27 32 -60.5t12 -71.5t-12 -71.5t-32 -60.5
l74 -74zM485 271q0 32 -12 60.5t-33 49.5t-49.5 33t-60.5 12t-60.5 -12t-49.5 -33t-33.5 -49.5t-12.5 -60.5t12.5 -60.5t33.5 -49.5t49.5 -33.5t60.5 -12.5t60.5 12.5t49.5 33.5t33 49.5t12 60.5z" />
    <glyph glyph-name="brokenbar" unicode="&#xa6;" horiz-adv-x="260" 
d="M92 176h76v-406h-76v406zM92 682h76v-340h-76v340z" />
    <glyph glyph-name="section" unicode="&#xa7;" horiz-adv-x="557" 
d="M467 213q0 -28 -8 -50t-21 -38t-29.5 -27t-34.5 -16q35 -26 59.5 -60t24.5 -76q0 -40 -16 -68.5t-42 -46.5t-59.5 -26t-67.5 -8q-64 0 -102.5 12t-53.5 20q-4 2 -5 15t0.5 27.5t6 25.5t12.5 8l45 -15t81 -10q52 0 77 19.5t25 50.5t-27 56.5t-78 50.5q-29 14 -55.5 29.5
t-46.5 34.5t-32 43t-12 54q0 27 10 49.5t27 39t39 26t47 11.5q-21 12 -41 27t-36.5 33t-26.5 38.5t-10 42.5q0 36 16 63t42.5 45t61 26.5t72.5 8.5q55 0 90 -6t45 -11q4 -2 3 -14.5t-5 -27.5t-10 -26.5t-12 -9.5q-24 7 -54.5 13.5t-59.5 6.5q-44 0 -67 -16.5t-23 -48.5
q0 -12 8 -23t21.5 -22.5t31.5 -22.5l37 -22q30 -17 58 -35t49 -40t33.5 -48.5t12.5 -61.5zM378 207q0 15 -6 29.5t-18 26t-29.5 19t-41.5 8.5q-42 3 -64 -18t-22 -51q0 -13 7.5 -27.5t21 -27.5t32.5 -21.5t42 -9.5q35 -2 56.5 15t21.5 57z" />
    <glyph glyph-name="dieresis" unicode="&#xa8;" horiz-adv-x="333" 
d="M299 560q0 -9 -3 -15.5t-14 -6.5h-47q-17 0 -21 6.5t-4 16.5v47q0 20 17 20h50q15 0 18.5 -4t3.5 -15v-49zM127 558q0 -9 -3.5 -14.5t-14.5 -5.5h-50q-14 0 -17.5 3t-3.5 13v51q0 10 2.5 16.5t14.5 6.5h51q13 0 17 -6.5t4 -16.5v-47z" />
    <glyph glyph-name="copyright" unicode="&#xa9;" horiz-adv-x="736" 
d="M372 1q-69 0 -128.5 24.5t-104 67t-70 99.5t-25.5 123t25.5 123t70 99t104 66.5t128.5 24.5t128.5 -24.5t104 -66.5t70 -99t25.5 -123t-25.5 -123t-70 -99.5t-104 -67t-128.5 -24.5zM372 584q-57 0 -108 -20.5t-88.5 -56.5t-59.5 -85.5t-22 -106.5t22 -106.5t59.5 -85.5
t88.5 -57t108 -21q58 0 108.5 21t88 57t59.5 85.5t22 106.5t-22 106.5t-59.5 85.5t-88 56.5t-108.5 20.5zM456 419q-8 4 -21.5 9t-39.5 5q-40 0 -60 -16t-20 -53v-113q0 -59 70 -59q32 0 49 6.5l25 9.5q2 0 4.5 -6.5t4.5 -14.5t2.5 -15t-1.5 -8q-10 -6 -33.5 -11.5
t-55.5 -5.5q-62 0 -94.5 26.5t-32.5 71.5v123q0 23 6 43.5t21.5 35.5t42 24t68.5 9q40 0 58 -7.5t23 -11.5q1 -1 -0.5 -8t-4.5 -14.5t-6.5 -13.5t-4.5 -6z" />
    <glyph glyph-name="ordfeminine" unicode="&#xaa;" horiz-adv-x="400" 
d="M126 478q0 -16 14.5 -29.5t39.5 -13.5q19 0 35.5 4t37.5 17v70h-55q-40 0 -56 -13.5t-16 -34.5zM63 477q0 42 27 69t89 27h74v20q0 58 -56 58q-26 0 -56.5 -1.5t-50.5 -4.5v44q18 8 49.5 13t61.5 5q48 0 81 -24.5t33 -78.5v-163q0 -16 12 -16h34v-30q-8 -6 -21 -10
t-31 -4q-17 0 -32.5 8.5t-19.5 22.5q-20 -16 -41.5 -24.5t-47.5 -8.5q-21 0 -40 7t-33.5 19.5t-23 30.5t-8.5 41z" />
    <glyph glyph-name="guillemotleft" unicode="&#xab;" horiz-adv-x="490" 
d="M468 0h-88l-147 225l147 225h88l-148 -225zM265 0h-88l-147 225l147 225h88l-148 -225z" />
    <glyph glyph-name="logicalnot" unicode="&#xac;" horiz-adv-x="584" 
d="M446 126v213h-391v82h473v-295h-82z" />
    <glyph glyph-name="registered" unicode="&#xae;" horiz-adv-x="736" 
d="M367 0q-69 0 -128.5 24.5t-104 66.5t-70 99t-25.5 123t25.5 123t70 99.5t104 67t128.5 24.5t128.5 -24.5t104 -67t70 -99.5t25.5 -123t-25.5 -123t-70 -99t-104 -66.5t-128.5 -24.5zM367 583q-57 0 -108 -20.5t-88.5 -57t-59.5 -86t-22 -106.5t22 -106t59.5 -85.5
t88.5 -57t108 -20.5q58 0 108.5 20.5t88 57t59.5 85.5t22 106t-22 106.5t-59.5 86t-88 57t-108.5 20.5zM501 152h-48q-5 0 -7.5 4l-5.5 9l-75 113q-2 4 -8 4h-31q-5 0 -5.5 -1.5t-0.5 -6.5v-107q0 -14 -11 -14h-43q-7 0 -7.5 4.5t-0.5 12.5v293q0 8 1.5 10t9.5 2h105
q62 0 91.5 -26.5t29.5 -70.5q0 -20 -7.5 -35t-17.5 -25t-20.5 -16t-17.5 -8l-5 -2.5t1 -3.5l77 -120q10 -16 -4 -16zM371 429h-43q-5 1 -6.5 -2t-1.5 -6v-83q0 -8 9 -8h53q21 0 35 11.5t14 38.5q0 49 -60 49z" />
    <glyph glyph-name="macron" unicode="&#xaf;" horiz-adv-x="333" 
d="M332 542h-331v73h331v-73z" />
    <glyph glyph-name="degree" unicode="&#xb0;" horiz-adv-x="396" 
d="M197 675q-35 0 -58.5 -23.5t-23.5 -58.5t23.5 -59t58.5 -24t59 24t24 59t-24 58.5t-59 23.5zM197 728q28 0 52.5 -10.5t43 -29t29 -43t10.5 -52.5t-10.5 -52.5t-29 -43t-43 -29t-52.5 -10.5t-52.5 10.5t-43 29t-29 43t-10.5 52.5t10.5 52.5t29 43t43 29t52.5 10.5z" />
    <glyph glyph-name="plusminus" unicode="&#xb1;" horiz-adv-x="584" 
d="M528 82v-82h-472v82h472zM333 589v-195h195v-82h-195v-195h-82v195h-195v82h195v195h82z" />
    <glyph glyph-name="twosuperior" unicode="&#xb2;" horiz-adv-x="388" 
d="M308 332h-228v38l59.5 62t50 57.5t34 53t12.5 48.5q0 32 -12 45t-51 13q-21 0 -44.5 -1.5t-43.5 -6.5v44q20 6 43.5 9t47.5 3q58 0 85 -26.5t27 -74.5q0 -45 -34 -99.5t-98 -114.5h152v-50z" />
    <glyph glyph-name="threesuperior" unicode="&#xb3;" horiz-adv-x="370" 
d="M233 518q25 -8 41 -29.5t16 -53.5q0 -50 -27.5 -81.5t-80.5 -31.5q-19 0 -49 2t-53 8v43q20 -1 38 -2q16 -1 32 -1.5t27 -0.5q29 0 45 17t16 46q0 59 -63 59h-43v44h34q63 0 63 58q0 22 -11.5 36.5t-43.5 14.5q-14 0 -39 -1.5t-46 -4.5v41q23 6 50 8t47 2
q46 0 70.5 -24.5t24.5 -66.5q0 -58 -48 -81v-1z" />
    <glyph glyph-name="acute" unicode="&#xb4;" horiz-adv-x="333" 
d="M177 654h100l-101 -147h-66z" />
    <glyph glyph-name="mu" unicode="&#xb5;" horiz-adv-x="512" 
d="M58 450h91v-268q0 -52 26.5 -81t69.5 -29q26 0 49.5 4.5t54.5 21.5v352h90v-371q0 -23 17 -23h46v-41q-24 -21 -74 -21q-23 0 -46 12t-28 31q-28 -22 -54 -32.5t-58 -10.5q-31 0 -60 13t-40 37v-244h-84v650z" />
    <glyph glyph-name="paragraph" unicode="&#xb6;" horiz-adv-x="401" 
d="M363 -47q0 -14 -1.5 -21t-13.5 -7h-35q-11 0 -11 8v656q0 3 -0.5 6.5t-6.5 3.5h-25q-9 0 -9 -10v-656q0 -8 -11 -8h-30q-11 0 -15 3t-4 13v305q0 13 -5.5 17.5t-13.5 4.5q-27 0 -56.5 10.5t-53.5 32.5t-40 57t-16 84q0 50 18 88t51 63t78.5 37.5t99.5 12.5h71q17 0 23 -5
t6 -16v-679v0z" />
    <glyph glyph-name="periodcentered" unicode="&#xb7;" horiz-adv-x="260" 
d="M130 405q25 0 42.5 -17.5t17.5 -42.5t-17.5 -42.5t-42.5 -17.5t-42.5 17.5t-17.5 42.5t17.5 42.5t42.5 17.5z" />
    <glyph glyph-name="cedilla" unicode="&#xb8;" horiz-adv-x="333" 
d="M252 -132q0 -34 -26.5 -51t-66.5 -17q-26 0 -40.5 6t-28.5 22q-3 4 -0.5 9.5t7 10.5t9.5 7.5t7 -0.5q5 -7 16.5 -12t26.5 -5q20 0 32.5 6.5t12.5 23.5q0 18 -10.5 24t-30.5 6h-6.5t-6.5 -1q-5 -1 -6.5 -1t-1.5 5v75h46v-46q29 0 48 -15t19 -47z" />
    <glyph glyph-name="onesuperior" unicode="&#xb9;" horiz-adv-x="372" 
d="M80 332v43h80v273l-72 -21v42l77 23h47v-317h80v-43h-212z" />
    <glyph glyph-name="ordmasculine" unicode="&#xba;" horiz-adv-x="400" 
d="M198 706q37 0 65 -12t46.5 -33t28 -50.5t9.5 -64.5q0 -75 -36.5 -121t-112.5 -46q-36 0 -63.5 12.5t-45.5 35t-27 53t-9 66.5q0 34 9.5 63.5t28 51t45.5 33.5t62 12zM198 651q-45 0 -63 -30t-18 -75q0 -50 17.5 -80.5t63.5 -30.5q49 0 67.5 29.5t18.5 80.5q0 46 -19.5 76
t-66.5 30z" />
    <glyph glyph-name="guillemotright" unicode="&#xbb;" horiz-adv-x="490" 
d="M225 450h88l147 -225l-147 -225h-88l148 225zM22 450h88l147 -225l-147 -225h-88l148 225z" />
    <glyph glyph-name="onequarter" unicode="&#xbc;" horiz-adv-x="798" 
d="M80 332v43h80v273l-72 -21v42l77 23h47v-317h80v-43h-212zM210 -27h-67l455 718h67zM686 128h32v-46h-32v-82h-52v82h-159v23l162 260h49v-237zM545 128h89v140h-1z" />
    <glyph glyph-name="onehalf" unicode="&#xbd;" horiz-adv-x="830" 
d="M80 332v43h80v273l-72 -21v42l77 23h47v-317h80v-43h-212zM750 0h-228v38l59.5 62t50 57.5t34 53t12.5 48.5q0 32 -12 45t-51 13q-21 0 -44.5 -1.5t-43.5 -6.5v44q20 6 43.5 9t47.5 3q58 0 85 -26.5t27 -74.5q0 -45 -34 -99.5t-98 -114.5h152v-50zM210 -27h-67l455 718
h67z" />
    <glyph glyph-name="threequarters" unicode="&#xbe;" horiz-adv-x="798" 
d="M215 -27h-67l455 718h67zM233 518q25 -8 41 -29.5t16 -53.5q0 -50 -27.5 -81.5t-80.5 -31.5q-19 0 -49 2t-53 8v43q20 -1 38 -2q16 -1 32 -1.5t27 -0.5q29 0 45 17t16 46q0 59 -63 59h-43v44h34q63 0 63 58q0 22 -11.5 36.5t-43.5 14.5q-14 0 -39 -1.5t-46 -4.5v41
q23 6 50 8t47 2q46 0 70.5 -24.5t24.5 -66.5q0 -58 -48 -81v-1zM686 128h32v-46h-32v-82h-52v82h-159v23l162 260h49v-237zM545 128h89v140h-1z" />
    <glyph glyph-name="questiondown" unicode="&#xbf;" horiz-adv-x="424" 
d="M69 10q0 42 18.5 73.5t40.5 57.5l40.5 49t18.5 47v42q0 20 18 20h52q10 0 14 -4t3 -15q1 -12 1 -23q0 -10 -1 -20.5t-3 -19.5q-7 -26 -25.5 -47.5l-38 -43.5t-35 -45t-15.5 -51q0 -80 76 -80q25 0 51.5 12.5t40.5 23.5q4 3 10.5 -4.5t11 -19.5t5.5 -24t-5 -16
q-6 -5 -18 -11.5t-28 -13.5t-36 -11.5t-43 -4.5q-71 0 -112 34.5t-41 94.5zM177 446q0 11 2 20t17 9h61q16 0 21.5 -7.5t5.5 -18.5v-40q0 -8 -4.5 -14.5t-12.5 -6.5h-68q-14 0 -18 4.5t-4 12.5v41z" />
    <glyph glyph-name="AE" unicode="&#xc6;" horiz-adv-x="836" 
d="M792 17q0 -10 -6 -13.5t-14 -3.5h-354q-9 0 -15.5 6t-6.5 21v110q0 18 -17 18h-175l-62 -131q-5 -14 -11.5 -19t-16.5 -5h-62q-21 0 -11 26l297 629q8 16 13 23t21 7h381q17 0 21 -2.5t4 -12.5v-55q0 -11 -11.5 -13t-31.5 -2h-208q-16 0 -20 -4.5t-4 -10.5v-162
q0 -14 4.5 -18t15.5 -4h185q20 0 25 -3.5t3 -12.5l-7 -53q-2 -14 -15.5 -15.5t-27.5 -1.5h-155q-15 0 -21 -5t-6 -17v-184q0 -16 7.5 -18t19.5 -2h227q19 0 26.5 -3.5t7.5 -14.5v-54zM396 584l-158 -346h141q11 0 14 5t3 13v328z" />
    <glyph glyph-name="Eth" unicode="&#xd0;" horiz-adv-x="602" 
d="M530 213q0 -71 -24 -113.5t-60 -64.5t-77 -28.5t-75 -6.5h-216q-10 0 -17 7t-7 25v273h-29q-26 0 -26 19v47q0 17 6 19t23 2h26v260q0 14 3 22.5t17 8.5h189q52 0 100.5 -9t85.5 -34t59 -68t22 -110v-249zM417 455q0 76 -41 107.5t-112 31.5h-78q-14 0 -17.5 -4.5
t-3.5 -14.5v-183h74q18 0 26 -2t8 -16v-46q0 -14 -6 -18.5t-28 -4.5h-74v-194q0 -10 4.5 -15.5t19.5 -5.5h76q27 0 54 4.5t49 18.5t35.5 41t13.5 72v229z" />
    <glyph glyph-name="multiply" unicode="&#xd7;" horiz-adv-x="499" 
d="M370 117q-9 -9 -16 -5.5t-18 14.5l-90 90l-92 -93q-11 -11 -17 -13.5t-14 5.5l-28 27q-10 10 -7 17t14 18l91 92l-95 95q-8 8 -9 13t6 13l26 26q11 10 16 8t15 -12l92 -92l94 93q8 8 14.5 9.5t14.5 -6.5l27 -26q10 -11 8 -16t-12 -15l-93 -92l92 -92q11 -11 14 -16.5
t-5 -13.5l-28 -28v0z" />
    <glyph glyph-name="Thorn" unicode="&#xde;" horiz-adv-x="583" 
d="M168 0h-98v644h99v-104h111q116 0 176.5 -52t60.5 -167q0 -107 -59.5 -162.5t-165.5 -55.5h-26.5t-32.5 0.5l-34 1t-31 1.5v-106zM168 188q27 -2 62 -2.5t56 -0.5q72 0 105 33t33 104q0 75 -33.5 106.5t-110.5 31.5h-112v-272z" />
    <glyph glyph-name="germandbls" unicode="&#xdf;" horiz-adv-x="602" 
d="M586 130q0 -39 -16 -66t-41.5 -43.5t-57.5 -24t-63 -7.5q-69 0 -104.5 11t-49.5 19q-4 1 -5 13.5t0.5 26t6 23.5t11.5 7q7 -2 15.5 -6t22 -8t33 -6.5t46.5 -2.5q45 0 70 17.5t25 49.5q0 26 -24.5 50.5t-69.5 48.5q-27 14 -51 28t-42.5 31.5t-29.5 39t-11 49.5
q0 23 11 42.5t24.5 38.5t25 38t11.5 42q0 37 -22 55t-54 18q-36 0 -54 -24.5t-18 -59.5v-500q0 -31 -22 -31h-59q-11 0 -18.5 5.5t-7.5 18.5v391h-49q-12 0 -16 4t-4 15v32q0 20 15 20h50v61q0 25 9.5 50.5t31 46.5t56 34t84.5 13q79 0 128 -35t49 -104q0 -27 -10 -47
t-22 -37t-22 -35t-10 -41q0 -26 25 -47t60 -40q30 -16 56.5 -33.5t45.5 -38.5t30 -46t11 -56z" />
    <glyph glyph-name="ae" unicode="&#xe6;" horiz-adv-x="710" 
d="M680 235q0 -19 -5.5 -27.5t-28.5 -8.5h-248q0 -72 33.5 -105t93.5 -33q51 0 81 7.5t42 11.5q23 9 23 -8v-42q0 -11 -5.5 -15.5t-22.5 -9.5q-4 -2 -17 -4l-30 -4.5t-37 -4t-39 -1.5q-78 0 -126 26q-2 -8 -5.5 -12.5t-13.5 -4.5h-44q-10 0 -15 4t-5 21v35q-13 -27 -50 -48
t-86 -21q-30 0 -57.5 12.5t-47.5 40.5t-32 72t-12 106q0 111 37.5 175t109.5 64q54 0 87 -19t51 -51v37q0 21 15 21h45q12 0 16.5 -2.5t6.5 -8.5q43 23 103 23q88 0 135.5 -44t47.5 -132v-50zM590 274q-2 61 -22.5 94t-72.5 33q-25 0 -43 -10t-29.5 -27.5t-17 -40.5
t-5.5 -48q0 -9 1.5 -13t9.5 -4h170q6 0 7.5 3.5t1.5 12.5zM304 292q0 14 -5 32t-16 34.5t-28.5 27.5t-42.5 11q-43 0 -65 -32t-22 -106v-70q0 -61 22 -97.5t67 -36.5q21 0 38 9.5t28.5 23t17.5 27.5t6 23v154z" />
    <glyph glyph-name="eth" unicode="&#xf0;" horiz-adv-x="496" 
d="M460 235q0 -119 -55 -181.5t-153 -62.5q-51 0 -91 11.5t-67.5 39.5t-42 75t-14.5 117q0 122 60 182t159 60q24 0 50 -9t43 -26q-13 29 -29 54t-35 46l-28 -28q-9 -9 -12.5 -9.5t-10.5 6.5l-28 28q-7 7 -3.5 10t14.5 14l23 25q-8 7 -16.5 13.5l-16.5 12.5q-5 4 -10 11
t5 17l37 43q6 7 12.5 1t12.5 -11q9 -7 17.5 -14.5l16.5 -14.5l20 20q13 12 17 14t9 -3l29 -30q6 -6 3.5 -11t-14.5 -17l-19 -19q31 -36 53.5 -74t36.5 -82.5t20.5 -95.5t6.5 -112zM360 283q0 58 -24 91.5t-83 33.5q-48 0 -80 -33.5t-32 -96.5v-85q0 -36 9 -61.5t24 -42
t35.5 -24t43.5 -7.5q51 0 79 39.5t28 105.5v80z" />
    <glyph glyph-name="divide" unicode="&#xf7;" horiz-adv-x="584" 
d="M294 234q17 0 30 -13t13 -31q0 -17 -13 -30t-30 -13q-18 0 -31 13t-13 30q0 18 13 31t31 13zM435 286q0 -13 -5.5 -16.5t-24.5 -3.5h-232q-22 0 -22 17v39q0 14 5.5 16t19.5 2h229q16 0 23 -2t7 -13v-39zM294 455q17 0 30 -13t13 -31q0 -17 -13 -30t-30 -13q-18 0 -31 13
t-13 30q0 18 13 31t31 13z" />
    <glyph glyph-name="oslash" unicode="&#xf8;" horiz-adv-x="484" 
d="M119 26q-44 31 -65.5 83.5t-21.5 120.5q0 48 13.5 90t39.5 73t65 48.5t89 17.5q69 0 119 -31l27 46h60l-47 -79q54 -62 54 -165q0 -53 -13 -97t-39.5 -75.5t-66.5 -49t-94 -17.5q-21 0 -39 3t-35 8l-26 -43h-60zM238 379q-32 0 -53.5 -11t-35.5 -31t-20 -47.5t-6 -59.5
q0 -44 9 -78t30 -54l152 257q-30 24 -76 24zM361 229q0 45 -14 81l-140 -236q15 -3 31 -3q70 0 96.5 42.5t26.5 115.5z" />
    <glyph glyph-name="thorn" unicode="&#xfe;" horiz-adv-x="551" 
d="M149 -181h-89h89zM545 230q0 -111 -61 -168.5t-186 -57.5h-108q-11 0 -13.5 -3.5t-2.5 -15.5v-95q0 -12 -4 -17t-17 -5h-72q-13 0 -17.5 5.5t-4.5 21.5v647q0 14 5 17.5t21 3.5h69q13 0 16 -5.5t3 -21.5v-67q0 -8 2.5 -13t18.5 -5h91q260 0 260 -221zM428 234
q0 34 -12 58.5t-32 40.5t-47 23t-57 7h-88q-11 -1 -14.5 -6t-3.5 -10v-235q0 -12 4 -15t16 -3h114q52 0 86 33t34 107z" />
    <glyph glyph-name="dotlessi" unicode="&#x131;" horiz-adv-x="219" 
d="M154 0h-89v449h89v-449z" />
    <glyph glyph-name="Lslash" unicode="&#x141;" horiz-adv-x="490" 
d="M458 18q0 -13 -5 -15.5t-17 -2.5h-340q-14 0 -17 6.5t-3 26.5v223l-15 -8q-12 -7 -19 -6.5t-13 10.5l-23 39q-8 14 -3.5 19.5t18.5 14.5l27 16q5 3 10 5.5l9 4.5q4 3 9 5v302q0 13 4 18.5t17 5.5h67q15 0 20 -6.5t5 -24.5v-230l46 26q16 9 24 12t14 -9l24 -39
q6 -13 2.5 -20t-22.5 -18l-88 -52v-219q0 -11 5 -14t16 -3h230q14 0 16 -4t2 -15v-48v0z" />
    <glyph glyph-name="lslash" unicode="&#x142;" horiz-adv-x="291" 
d="M271 378q6 -12 3 -18.5t-21 -17.5l-33 -19l-12.5 -7l-10.5 -6q-5 -4 -10 -6v-273q0 -17 -2.5 -24t-14.5 -7h-59q-14 0 -17.5 5t-3.5 24v221l-29 -16q-11 -7 -17.5 -6.5t-11.5 9.5l-22 37q-8 14 -4 19t18 14l66 37v285q0 12 3.5 18t17.5 6h55q16 0 18.5 -6t2.5 -20v-230
l26 15q15 9 23 11.5t13 -8.5l22 -37v0z" />
    <glyph glyph-name="florin" unicode="&#x192;" horiz-adv-x="300" 
d="M276 372q0 -8 -4 -13t-16 -5h-51v-351q0 -48 -25.5 -76.5t-83.5 -28.5q-25 0 -43.5 3t-28.5 8q-3 1 -3 11t1.5 21t4.5 20t7 8q14 -3 20 -4.5t19 -1.5q17 0 28 13t11 37v341h-41q-11 0 -14.5 3.5t-3.5 13.5v27q0 17 13 17h40q-5 10 -10 26t-5 47q0 19 5.5 38t18.5 33.5
t32.5 23.5t48.5 9q26 0 44.5 -3.5t28.5 -7.5q3 -1 2.5 -10.5t-2.5 -21t-4.5 -20t-5.5 -8.5q-13 3 -19.5 4t-19.5 1q-17 0 -28 -12t-11 -37q0 -21 6.5 -36t16.5 -25h52q13 0 16.5 -4t3.5 -12v-28v0z" />
    <glyph glyph-name="circumflex" unicode="&#x2c6;" horiz-adv-x="333" 
d="M287 529q16 -23 -6 -23h-32q-8 0 -12.5 1t-9.5 9l-62 82l-62 -82q-6 -8 -11 -9t-11 -1h-33q-21 0 -5 23l79 111q5 7 10 12.5t15 5.5h34q11 0 16 -5.5l11 -12.5l79 -111v0z" />
    <glyph glyph-name="caron" unicode="&#x2c7;" horiz-adv-x="333" 
d="M46 634q-16 23 6 23h32q8 0 12.5 -1t9.5 -9l62 -82l62 82q6 8 11 9t11 1h33q21 0 5 -23l-79 -111q-5 -7 -10 -12.5t-15 -5.5h-34q-11 0 -16 5.5l-11 12.5l-79 111v0z" />
    <glyph glyph-name="breve" unicode="&#x2d8;" horiz-adv-x="333" 
d="M284 624q-15 -49 -42 -79.5t-72 -30.5q-24 0 -42.5 9t-32.5 24t-23.5 35.5t-15.5 43.5q-2 6 -1.5 12t11.5 6h28q12 0 16 -10q8 -29 21.5 -49t38.5 -20q26 0 39 20.5t21 48.5q5 10 17 10h29q11 0 10.5 -7t-2.5 -13z" />
    <glyph glyph-name="dotaccent" unicode="&#x2d9;" horiz-adv-x="333" 
d="M167 628q20 0 33 -13t13 -33t-13 -33.5t-33 -13.5t-33.5 13.5t-13.5 33.5t13.5 33t33.5 13z" />
    <glyph glyph-name="ring" unicode="&#x2da;" horiz-adv-x="333" 
d="M167 691q19 0 36 -7.5t29.5 -20t20 -29.5t7.5 -36t-7.5 -36t-20 -29.5t-29.5 -20t-36 -7.5t-36 7.5t-29.5 20t-20 29.5t-7.5 36t7.5 36t20 29.5t29.5 20t36 7.5zM167 647q-20 0 -35 -14.5t-15 -34.5t15 -35t35 -15t34.5 15t14.5 35t-14.5 34.5t-34.5 14.5z" />
    <glyph glyph-name="ogonek" unicode="&#x2db;" horiz-adv-x="333" 
d="M268 -169q-15 -17 -37 -26t-43 -9q-20 0 -39.5 4t-35.5 14t-26 27t-10 43q0 18 9 35.5t24.5 35t35.5 33t41 28.5h58q-15 -11 -33 -26.5t-33.5 -33.5t-25.5 -36.5t-10 -34.5q0 -20 13 -29t36 -9q14 0 28 5t21 13q3 3 9 0t11.5 -9t8 -13t-1.5 -12z" />
    <glyph glyph-name="tilde" unicode="&#x2dc;" horiz-adv-x="333" 
d="M316 601q-18 -35 -41 -60.5t-57 -25.5q-14 0 -28.5 7.5t-28.5 16l-27 16t-24 7.5q-14 0 -27 -9.5t-20 -21.5q-3 -6 -5.5 -6t-6.5 2l-32 16q-7 1 -4 10q5 12 13.5 26t20.5 26t26.5 20t31.5 8q13 0 28 -7t30 -16t29 -16t25 -7q17 0 28 11t18 24q5 8 12 5l35 -13q9 -4 4 -13
z" />
    <glyph glyph-name="hungarumlaut" unicode="&#x2dd;" horiz-adv-x="333" 
d="M169 654l-112 -147h-55l67 147h100zM329 654l-112 -147h-55l67 147h100z" />
    <glyph glyph-name="uni0E00" unicode="&#xe00;" horiz-adv-x="195" 
 />
    <glyph glyph-name="uni0E01" unicode="&#xe01;" horiz-adv-x="526" 
d="M249 511q64 0 108 -16t71 -41t38.5 -55.5t11.5 -59.5v-326q0 -13 -13 -13h-53q-5 0 -9 2.5t-4 10.5v311q0 35 -14 56.5t-35 33t-44.5 15.5t-41.5 4q-48 0 -80.5 -9.5t-41.5 -14.5q-5 -3 -6.5 -7.5t-1.5 -8.5v-380q0 -13 -12 -13h-53q-13 0 -13 13v434q0 13 12 18
q39 20 85.5 32t95.5 14z" />
    <glyph glyph-name="uni0E02" unicode="&#xe02;" horiz-adv-x="456" 
d="M388 503q13 0 13 -13v-430q0 -13 -11 -19q-26 -13 -52 -23q-23 -8 -51 -15t-55 -7q-63 0 -102.5 16t-61.5 40.5t-29.5 55t-7.5 59.5v103q0 29 18 47.5t37 33.5q14 12 25 23t11 25v22q0 13 -13 13h-65q-13 0 -11 13l6 43q2 13 15 13h134q13 0 13 -13v-93
q0 -31 -17.5 -50.5t-36.5 -36.5q-15 -12 -26.5 -24t-11.5 -29v-77q0 -35 10 -56t25.5 -32.5t34.5 -15.5t37 -4q49 0 72 9t31 14q2 2 3 4.5t1 12.5v190v188q0 13 13 13h52v0z" />
    <glyph glyph-name="uni0E03" unicode="&#xe03;" horiz-adv-x="458" 
d="M390 503q13 0 13 -13v-430q0 -13 -11 -19q-26 -13 -52 -23q-23 -8 -51 -15t-55 -7q-63 0 -102.5 16t-61 40.5t-29 55t-7.5 59.5v99q0 21 9.5 34.5t23 24.5t29 21t28.5 23q14 15 19.5 25.5t4.5 18.5v8q0 13 -10 13q-5 0 -10.5 -2.5t-9.5 -5.5l-22 -20q-4 -3 -9.5 -3
t-9.5 3q0 -1 -3 2q-5 3 -21 18q-8 8 -31 8q-13 0 -11 13l6 43q1 5 8 9t12 4q13 0 22 -9l20 -22q8 -9 17 0l21 22q11 9 22 9h57q13 0 13 -13v-104q0 -16 -5 -28t-13.5 -21.5t-18.5 -17l-20 -14.5q-17 -11 -29 -22.5t-12 -28.5v-74q0 -35 10 -56t25.5 -32.5t35 -15.5t37.5 -4
q48 0 71 9t31 14q2 2 3 4.5t1 12.5v378q0 13 13 13h52v0z" />
    <glyph glyph-name="uni0E04" unicode="&#xe04;" horiz-adv-x="550" 
d="M277 511q44 0 84.5 -12.5t71 -35t49 -54t18.5 -70.5v-326q0 -13 -13 -13h-53q-13 0 -13 13v311q0 27 -11.5 49t-31 38t-45.5 24.5t-56 8.5q-41 0 -80 -12t-59 -35q-3 -3 -6 -8.5t-3 -17.5v-88q0 -11 1.5 -10t2.5 2q12 11 27.5 14t25.5 3h73q13 0 15 -12l7 -39
q2 -12 -11 -12h-89q-17 0 -27.5 -6t-16 -14.5t-7 -18.5t-1.5 -18v-159q0 -13 -13 -13h-53q-13 0 -13 13v371q0 11 2 17t4 10q14 25 37.5 44t52.5 31.5t62.5 18.5t68.5 6z" />
    <glyph glyph-name="uni0E05" unicode="&#xe05;" horiz-adv-x="566" 
d="M468 460q38 -40 38 -104v-343q0 -13 -13 -13h-51q-13 0 -13 13v343q-1 11 -4.5 22.5t-11.5 21.5t-22.5 17t-36.5 10q-7 1 -11.5 -0.5t-11.5 -6.5l-41 -36q-10 -8 -20 0q-1 1 -6.5 6l-12 11l-12.5 11.5t-8 7.5q-7 5 -12 6.5t-11 0.5q-22 -3 -36 -10t-22.5 -17t-11.5 -21.5
t-3 -22.5v-73q0 -11 1.5 -10t3.5 2q11 11 26.5 14t26.5 3h72q13 0 15 -13l7 -38q2 -12 -11 -12h-89q-17 0 -27.5 -6t-16 -14.5t-7 -18.5t-1.5 -18v-159q0 -13 -13 -13h-53q-13 0 -13 13v343q0 63 39 104q20 22 53 33.5t72 13.5q14 0 16.5 -2.5l6.5 -6.5l29 -33q9 -9 18 0
l30 33q8 8 13.5 8.5t8.5 0.5q40 -2 73 -13.5t53 -33.5z" />
    <glyph glyph-name="uni0E06" unicode="&#xe06;" horiz-adv-x="532" 
d="M465 503q12 0 12 -13v-326q0 -28 -5 -49t-11 -35t-11 -21.5l-5 -7.5q-13 -19 -42 -36t-77 -19q-36 0 -66 10.5t-53 26t-40 33t-26 30.5q-2 2 -3.5 4t-1.5 -5v-82q0 -13 -13 -13h-52q-13 0 -13 13v258q0 20 9.5 33t23 23.5t29 19.5t28.5 22q14 14 19.5 24t5.5 18v11
q0 7 -3.5 9.5t-8.5 2t-10 -3t-8 -5.5l-22 -19q-9 -9 -20 0l-3 3q-2 2 -7 5.5t-13 11.5q-4 3 -12 5.5t-20 2.5q-13 0 -11 13l6 43q1 5 8.5 9t12.5 4q13 0 21 -10l20 -22q9 -9 18 0l21 22q4 5 10 7.5t11 2.5h58q13 0 13 -13v-87v-13q0 -29 -17.5 -45t-37.5 -29
q-17 -11 -30 -22.5t-13 -31.5v-9q0 -4 1 -8q2 -35 15.5 -66t37 -54.5t57 -37t75.5 -13.5q30 0 44 9.5t17 13.5q16 22 16 67v326q0 13 13 13h53v0z" />
    <glyph glyph-name="uni0E07" unicode="&#xe07;" horiz-adv-x="460" 
d="M387 445q18 -23 34 -70t16 -116q0 -50 -9 -95t-31.5 -80t-60.5 -57.5t-97 -26.5h-69q-13 0 -16 12l-135 453q-4 12 9 16l50 14q12 4 16 -9l59 -200l22 -74.5l20 -65.5l14.5 -47.5t6.5 -20.5q1 -8 9 -10q4 -1 7 -1q22 0 45 6.5t41.5 27t30 58.5t11.5 101q0 39 -6 67
t-13 46t-13 26.5l-6 8.5q-9 10 -26.5 19.5t-50.5 11.5q-5 1 -6 5l-2 8l-8 42q-1 5 0.5 9t9.5 4q98 -1 148 -62z" />
    <glyph glyph-name="uni0E0A" unicode="&#xe0a;" horiz-adv-x="465" 
d="M411 515q12 3 12 -10v-47q0 -32 -12.5 -55t-37.5 -42q-6 -5 -5.5 -7t1.5 -3q40 -38 40 -95v-195q0 -8 -3 -12t-8 -8q-26 -12 -52 -22q-23 -8 -51 -15t-55 -7q-63 0 -102.5 16t-61 40.5t-29 55t-7.5 59.5v102q0 29 17.5 48t37.5 34q14 12 24.5 23t10.5 25v22q0 13 -13 13
h-64q-13 0 -11 13l6 43q2 13 15 13h134q12 0 12 -13v-93q0 -32 -17.5 -51t-36.5 -36q-14 -12 -25.5 -24.5t-11.5 -28.5v-77q0 -35 10 -56t25.5 -32.5t34.5 -15.5t37 -4q48 0 71 8.5t31 14.5q2 2 3 5t1 12v159q0 28 -15 39.5t-32 19.5q-5 2 -8 7t-2 10q0 2 1 5q1 2 1 4.5
t1 4.5q2 9 8 12.5t10 5.5q18 9 34 23.5t16 38.5v49q0 13 13 15l53 9v0z" />
    <glyph glyph-name="uni0E0B" unicode="&#xe0b;" horiz-adv-x="467" 
d="M375 360q-6 -5 -5.5 -7t1.5 -3q40 -38 40 -95v-195q0 -8 -3 -12t-8 -8q-26 -12 -52 -22q-23 -8 -51 -15t-55 -7q-63 0 -102.5 16t-61 40.5t-29 55t-7.5 59.5v99q0 21 9.5 34.5t23 24.5t29 21t28.5 23q15 14 20 25t5 19t-1.5 14.5t-9.5 6.5q-4 0 -9.5 -2.5t-10.5 -5.5
l-22 -20q-4 -3 -9.5 -3.5t-9.5 3.5l-3 3q-2 2 -7 5.5t-13 11.5q-5 3 -12.5 5.5t-19.5 2.5q-13 0 -11 13l6 43q1 5 8 9t12 4t11.5 -2.5t10.5 -7.5l20 -22q8 -9 17 0l21 23q9 9 22 9h57q13 0 13 -13v-104q0 -16 -5 -28t-13.5 -21.5t-18.5 -17l-20 -14.5q-16 -11 -28 -23
t-12 -29v-73q0 -35 10 -56t25.5 -32.5t34.5 -15.5t37 -4q48 0 71 8.5t31 14.5q2 2 3.5 4.5t1.5 12.5v159q0 14 -4 23t-10.5 15t-15.5 11l-18 10q-5 2 -8 7t-2 10q0 2 1 5q1 2 1 4.5t1 4.5q2 9 8 12.5t11 5.5q15 7 32 22t17 40v49q0 13 13 15l53 9q12 3 12 -10v-47
q0 -32 -12.5 -55t-37.5 -42z" />
    <glyph glyph-name="uni0E0D" unicode="&#xe0d;" horiz-adv-x="811" 
d="M775 165q0 -29 -7.5 -59.5t-29.5 -55.5t-61 -41t-103 -16q-28 0 -58.5 7t-56.5 15q-31 10 -60 23q-11 6 -11 19v266q0 35 -14 56.5t-35 33t-44.5 15.5t-41.5 4q-48 0 -80.5 -9.5t-41.5 -14.5q-5 -3 -6.5 -7.5t-1.5 -8.5v-301q0 -13 13 -13h35q13 0 11 -13l-8 -52
q-2 -13 -15 -13h-101q-13 0 -13 13v433q0 13 12 18q39 20 85.5 32t95.5 14q64 0 108 -16t71 -41t38.5 -55.5t11.5 -59.5v-226q0 -10 1 -12.5t3 -4.5q8 -6 39 -15t80 -9q18 0 37 4t35 15.5t26 33t10 56.5v309q0 13 13 13h52q12 0 12 -13v-324zM771 -31q8 -8 3 -15
q-12 -17 -28 -33.5t-37.5 -30.5t-50.5 -22.5t-67 -8.5q-37 0 -69.5 6.5t-46.5 11.5q-4 2 -5 3.5t-2 3.5t-1 4v55q0 3 1 9t12 3l46 -12.5t64 -6.5q12 0 29.5 1t37.5 6t40.5 16t37.5 31q4 4 9 4q2 0 4 -2l9 -9z" />
    <glyph glyph-name="uni0E0E" unicode="&#xe0e;" horiz-adv-x="529" 
d="M259 510q64 0 108 -16t71 -41t38.5 -55.5t11.5 -59.5v-431q0 -26 -11 -46t-25 -34q-16 -16 -35 -28q-5 -3 -10.5 -2.5t-9.5 2.5q-22 10 -44.5 19t-62.5 15l-29.5 2.5t-38 -1t-42 -11t-41.5 -25.5q-5 -4 -9 -2l-4 2q-4 5 -8 9l-6.5 8.5t-5.5 7.5q-7 9 -1 16q14 15 32 29.5
t41.5 25t53 15.5t67.5 0q28 -4 53 -11t42 -14q7 -3 11 6t4 29v404q0 35 -14 56.5t-35 33t-44.5 15.5t-41.5 4q-48 0 -80.5 -9.5t-41.5 -14.5q-5 -3 -6.5 -7.5t-1.5 -8.5v-380q0 -12 -13 -12h-100q-13 0 -15 12l-8 53q-2 12 11 12h34q13 0 13 13v356q0 13 12 18
q39 20 85.5 32t95.5 14z" />
    <glyph glyph-name="uni0E0F" unicode="&#xe0f;" horiz-adv-x="529" 
d="M258 510q64 0 108 -16t71 -41t38.5 -55.5t11.5 -59.5v-431q0 -26 -11 -46t-25 -34q-16 -16 -35 -28q-5 -2 -11.5 -1.5t-11.5 2.5q-2 0 -11 5q-8 4 -24 13l-44 26q-2 2 -5 3t-8 -2q-41 -28 -78 -39t-86 -11h-15q-13 0 -11 13l6 35q2 5 10 4.5t16 0.5q25 2 50 10t48 23
q26 19 45 43q5 8 10 8t9 -2l38 -21l28 -15.5t17 -9.5q8 -4 14 2.5t6 32.5v404q0 35 -14 56.5t-35 33t-44.5 15.5t-41.5 4q-48 0 -80.5 -9.5t-41.5 -14.5q-5 -3 -6.5 -7.5t-1.5 -8.5v-380q0 -12 -13 -12h-100q-13 0 -15 12l-8 53q-2 12 11 12h34q13 0 13 13v356q0 13 12 18
q39 20 85.5 32t95.5 14z" />
    <glyph glyph-name="uni0E10" unicode="&#xe10;" horiz-adv-x="456" 
d="M412 -54q13 0 13 -13v-18q-1 -26 -11.5 -46t-24.5 -34q-16 -16 -35 -28q-5 -2 -11.5 -1.5t-11.5 2.5h-1l-79 44q-2 2 -4.5 3t-7.5 -2q-41 -28 -78.5 -39t-86.5 -11h-14h-1q-13 0 -11 13l7 35q0 4 13 4h3q5 0 9 1q26 2 51 10t48 24q26 17 44 42q5 8 10.5 8t8.5 -2l39 -21
l28.5 -15.5t17.5 -9.5q7 -4 13 2.5t6 32.5v6q0 8 4 10.5t9 2.5h53zM329 296q54 -14 75 -46t21 -73v-57q-1 -19 -5 -39t-20 -37t-48 -29t-89 -15h-10.5h-16h-15h-8.5q-17 0 -26 11q-4 4 -7 11l-36 112q-4 13 -17 13h-25q-12 0 -10 12q2 15 3.5 23.5t2 12.5t1 5l0.5 1
q5 9 14 9h65q5 0 10 -3.5t7 -8.5l10.5 -29.5l9 -24.5t9 -26.5l11.5 -35.5q1 -2 4 -6t11 -2q54 -1 80 13.5t26 34.5v57q0 19 -8.5 29.5t-25.5 15.5q-2 1 -28.5 6.5l-59 12l-61.5 12t-37 7.5q-18 3 -38 10.5t-36.5 21.5t-27.5 35.5t-11 53.5q0 39 18.5 64.5t47.5 40.5t64.5 21
t68.5 6q24 -1 52 -5.5t51 -9.5q27 -6 55 -15q13 -5 9 -16l-9 -44q-1 -5 -5 -7.5t-9 -0.5q-22 8 -47 14q-22 5 -49.5 9.5t-57.5 4.5q-38 0 -60 -7t-33 -16.5t-14 -20t-3 -16.5q0 -30 19 -41t46 -16l30 -6l53.5 -10.5l52 -10t26.5 -5.5z" />
    <glyph glyph-name="uni0E11" unicode="&#xe11;" horiz-adv-x="536" 
d="M457 450q29 -43 29 -109v-328q0 -13 -13 -13h-52q-13 0 -13 13v328q0 11 -3.5 26.5t-12.5 29.5t-23.5 24t-36.5 10t-42.5 -8t-38.5 -19t-31.5 -22.5t-20.5 -18.5q-26 -29 -40 -68t-13 -80v-202q0 -13 -13 -13h-53q-13 0 -13 13v204q0 31 8 57.5t18 46.5q11 23 26 43
q14 17 18 28t4 19q0 5 -1 11.5t-9 6.5q-5 0 -10.5 -2.5t-9.5 -5.5l-22 -20q-10 -7 -20 0l-3 3q-2 2 -7 5.5t-13 11.5q-4 3 -12 5.5t-20 2.5q-13 0 -11 13q0 2 2 17t4 25q1 8 11 12q4 2 10 2q12 0 21 -9l20 -22q9 -10 18 -1l21 23q3 4 9.5 6.5t11.5 2.5h55q12 0 12 -13v-34
q0 -8 2 -8t8 7q7 7 18.5 17.5t27.5 19.5t36.5 15.5t45.5 6.5q31 0 53.5 -9t37.5 -20t22.5 -20t7.5 -10z" />
    <glyph glyph-name="uni0E13" unicode="&#xe13;" horiz-adv-x="811" 
d="M760 503q12 0 12 -12v-478q0 -13 -12 -13h-53q-5 0 -9 2.5t-4 10.5v71q0 4 -1 5.5t-3 -0.5q-9 -13 -23.5 -29.5t-35 -31.5t-46.5 -25.5t-58 -10.5q-43 1 -71 20t-40 37q-8 11 -13.5 22.5t-9 27t-5.5 36t-2 48.5v141q0 35 -14 56.5t-35 33t-44.5 15.5t-41.5 4
q-48 0 -80.5 -9.5t-41.5 -14.5q-5 -3 -6.5 -7.5t-1.5 -8.5v-302q0 -13 13 -13h34q13 0 11 -13l-8 -52q-1 -13 -14 -13h-101q-13 0 -13 13v434q0 13 12 18q39 20 85.5 32t95.5 14q64 0 108 -16t71 -41t38.5 -55.5t11.5 -59.5v-179q0 -46 15 -67q3 -5 14 -14t37 -9
q37 0 66.5 15t50 40.5t32.5 58t14 67.5v240q0 8 4 10t9 2h53v0z" />
    <glyph glyph-name="uni0E17" unicode="&#xe17;" horiz-adv-x="529" 
d="M67 0q-13 0 -13 13v475q0 12 13 12h52q13 0 13 -12v-79q0 -8 1.5 -6t3.5 4q9 13 26 30.5t40 33t53 26t66 10.5q48 -1 77 -18.5t42 -35.5q0 -1 5 -8t11 -21.5t11 -35.5t5 -49v-326q0 -13 -12 -13h-53q-13 0 -13 13v326q0 22 -4 39t-12 28q-3 4 -17 13.5t-44 9.5
q-42 0 -75.5 -13.5t-57 -37t-37 -54.5t-15.5 -66l-0.5 -11t-0.5 -28v-39v-45v-122q0 -13 -12 -13h-53v0z" />
    <glyph glyph-name="uni0E18" unicode="&#xe18;" horiz-adv-x="505" 
d="M365 293q53 -14 74 -46t21 -73v-56q0 -20 -6.5 -41.5t-27 -39.5t-60.5 -29.5t-107 -11.5t-107.5 16.5t-62 39t-28.5 45.5t-7 35v75q0 11 13 15l52 9q12 2 12 -11v-68q0 -24 13 -42q11 -16 37 -29t77 -13q28 0 52 3.5t42 10t28 16.5t10 22v56q0 35 -34 46q-2 0 -25 4.5
l-53.5 10.5l-61.5 12t-49 10q-19 3 -39 10.5t-36.5 21.5t-27 35.5t-10.5 53.5q0 39 18.5 64t47 40t64 21.5t68.5 6.5q25 -1 53 -5.5t51 -9.5q27 -6 54 -15q8 -3 9.5 -7t0.5 -9l-9 -44q-3 -11 -15 -8q-22 8 -47 14q-21 5 -48.5 9.5t-57.5 4.5q-38 0 -60 -7t-33 -16.5t-14 -20
t-3 -16.5q0 -30 19 -41.5t45 -15.5q13 -2 40 -7l54 -10.5t49 -9.5t25 -5z" />
    <glyph glyph-name="uni0E19" unicode="&#xe19;" horiz-adv-x="544" 
d="M466 503q12 0 12 -13v-477q0 -13 -12 -13h-53q-13 0 -13 13v80q0 8 -1.5 5.5t-2.5 -4.5q-9 -13 -26 -30t-40.5 -32.5t-53.5 -26t-66 -10.5q-47 1 -76 18.5t-43 35.5l-5 7.5t-11 21.5t-11 35t-5 49v328q0 13 13 13h52q13 0 13 -13v-328q0 -44 17 -67q3 -4 16.5 -13
t44.5 -9q42 0 75.5 13.5t57 36.5t37 54.5t15.5 66.5v246q0 13 13 13h53v0z" />
    <glyph glyph-name="uni0E1A" unicode="&#xe1a;" horiz-adv-x="555" 
d="M263 -8q-48 0 -95 13t-86 33q-5 2 -8.5 7.5t-3.5 10.5v434q0 13 13 13h53q13 0 13 -13v-380q0 -4 1 -8.5t6 -7.5q9 -5 41.5 -14.5t81.5 -9.5q18 0 41.5 4t44 15.5t35 33t14.5 56.5v310q0 8 3.5 10.5t8.5 2.5h53q13 0 13 -13v-325q0 -29 -11.5 -59.5t-38.5 -55.5t-71 -41
t-108 -16z" />
    <glyph glyph-name="uni0E1C" unicode="&#xe1c;" horiz-adv-x="619" 
d="M543 121q0 -19 -4 -40.5t-16 -40t-34 -31t-58 -12.5q-27 0 -46.5 6.5t-33.5 16t-23 20t-13 18.5q-5 7 -6.5 7t-5.5 -7q-5 -8 -13.5 -18.5t-22.5 -20t-33.5 -16t-46.5 -6.5q-36 0 -58 12.5t-34 31t-16 40t-4 40.5v369q0 13 13 13h101q12 0 14 -13l8 -52q2 -13 -11 -13h-34
q-13 0 -13 -13v-264v-18t5.5 -24.5t17.5 -21.5t36 -9q25 0 39 13t20 33.5t7 44.5l2 46q0 13 13 15l31 4q13 2 13 -11v-18q1 -23 4 -46t10 -41t20 -29t35 -11q24 0 36 9t17 21.5t5 24.5v18v342q0 8 4 10.5t9 2.5h53q13 0 13 -13v-369z" />
    <glyph glyph-name="uni0E1D" unicode="&#xe1d;" horiz-adv-x="614" 
d="M543 121q0 -19 -4 -40.5t-15.5 -40t-33.5 -31t-58 -12.5q-27 0 -46.5 6.5t-33.5 16t-23 20t-13 18.5q-5 7 -6.5 7t-5.5 -7q-5 -8 -13.5 -18.5t-22.5 -20t-34 -16t-47 -6.5q-36 0 -58 12.5t-33.5 31t-15.5 40t-4 40.5v369q0 13 13 13h101q12 0 14 -12l8 -53q2 -13 -11 -13
h-34q-13 0 -13 -12v-264v-18.5t5.5 -25t17.5 -21.5t36 -9q25 0 39 12.5t20 32.5t7 44.5l2 47.5q0 13 13 15l31 5q12 2 12 -11v-5q0 -2 0.5 -6t0.5 -8q1 -23 4 -46t10 -41t20 -29t35 -11q24 0 36 9t17 21.5t5 25v18.5v492q0 8 4 10t9 2h53q12 0 12 -12v-520z" />
    <glyph glyph-name="uni0E1E" unicode="&#xe1e;" horiz-adv-x="651" 
d="M588 503q13 0 11 -13l-65 -478q-2 -12 -14 -12h-43q-12 0 -19 11l-61 115l-60 115q-7 10 -12 0l-61 -115l-61 -115q-6 -11 -19 -11h-43q-12 0 -14 12l-65 478q-2 13 11 13h53q11 0 15 -13l47 -333l1 -24q0 -5 1 -5.5t3 4.5l7 25l110 216q2 5 8 8.5t11 3.5h3q5 0 11 -3.5
t8 -8.5l111 -216l7 -25q1 -5 2 -4.5t1 5.5l1 24l48 333q2 13 14 13h53v0z" />
    <glyph glyph-name="uni0E1F" unicode="&#xe1f;" horiz-adv-x="651" 
d="M608 648q13 0 11 -13l-85 -622q-2 -13 -14 -13h-43q-5 0 -11 3t-8 8l-122 230q-5 12 -12 0l-121 -230q-7 -11 -19 -11h-43q-5 0 -9.5 3.5t-5.5 8.5l-64 479q-2 12 11 12h52q13 0 15 -12l48 -333l1 -25q0 -11 3 0l2 8l2 8t3 9l58 113l53 103q5 11 18 11h4q13 0 19 -11
l110 -216l7 -25q2 -5 3 -5t1 5v25l70 477q2 13 15 13h51v0z" />
    <glyph glyph-name="uni0E20" unicode="&#xe20;" horiz-adv-x="531" 
d="M258 511q64 0 108 -16t71 -41t38.5 -55.5t11.5 -59.5v-326q0 -13 -12 -13h-54q-5 0 -9 2.5t-4 10.5v311q0 35 -14 56.5t-35 33t-44.5 15.5t-41.5 4q-48 0 -80.5 -9.5t-41.5 -14.5q-5 -3 -6.5 -7.5t-1.5 -8.5v-380q0 -13 -13 -13h-100q-13 0 -15 13l-8 52q-2 13 11 13h34
q13 0 13 13v356q0 13 12 18q39 20 85.5 32t95.5 14z" />
    <glyph glyph-name="uni0E21" unicode="&#xe21;" horiz-adv-x="532" 
d="M75 503h53q13 0 13 -13v-244q2 -35 15.5 -66.5t37 -54.5t57 -36.5t75.5 -13.5q31 0 44.5 9t16.5 13q17 23 17 68v325q0 13 13 13h52q13 0 13 -13v-325q0 -28 -5 -49.5t-11 -35.5t-11 -21.5l-5 -7.5q-14 -18 -43 -35.5t-76 -18.5q-36 0 -66.5 10.5t-53.5 26t-40 32.5
t-26 30q-2 2 -3.5 4.5t-1.5 -5.5v-82q0 -13 -12 -13h-53q-13 0 -13 13v477q0 13 13 13z" />
    <glyph glyph-name="uni0E22" unicode="&#xe22;" horiz-adv-x="514" 
d="M447 503q13 0 13 -13v-444q0 -5 -2.5 -8.5t-4.5 -5.5q-3 -3 -6 -4q-53 -20 -102.5 -26t-97.5 -6q-88 0 -142 46q-26 22 -39.5 54.5t-13.5 65.5q0 40 17 66t29 37q6 6 6 8t-6 9q-11 11 -26 36t-15 61t14.5 61.5t41.5 43.5q28 19 61 23t59 -3l9 -4.5t5 -13.5
q-1 -11 -1 -18.5v-18.5q0 -10 -5 -11t-8 -1q-42 3 -72.5 -14t-33.5 -47q-3 -27 9.5 -43t30.5 -24t37 -10.5t30 -2.5q8 0 7 -8q0 -3 -2.5 -17.5t-4.5 -24.5q-1 -6 -4 -6.5t-5 -0.5q-41 4 -71 -12.5t-30 -59.5q0 -16 7.5 -32.5t22.5 -30t38.5 -22t55.5 -8.5q35 0 66.5 3
t53.5 8q4 1 8.5 3.5t4.5 12.5v389q0 13 13 13h53v0z" />
    <glyph glyph-name="uni0E23" unicode="&#xe23;" horiz-adv-x="414" 
d="M229 297q46 -15 77 -32.5t49.5 -37.5t26 -42.5t7.5 -47.5q0 -21 -10 -46t-32.5 -47t-58 -36.5t-86.5 -14.5q-26 0 -50 4.5t-44 11t-35 13.5t-22 11q-12 8 -10 20l9 49q1 5 4.5 6.5t7.5 -0.5q16 -9 49.5 -24.5t81.5 -15.5q63 0 90 19.5t27 49.5q0 31 -23.5 51t-80.5 38
q-14 4 -41.5 14t-56 28t-49.5 44.5t-21 64.5v5q1 37 18 61.5t43.5 39.5t59.5 21t68 6q20 0 41.5 -4t40 -9t33.5 -10t22 -8q5 -2 5 -6.5t-1 -9.5l-9 -43q-2 -11 -14 -6q-11 6 -39.5 15t-67.5 11q-14 0 -35 -1t-40 -7t-32.5 -18t-13.5 -34q0 -30 28 -47t84 -36z" />
    <glyph glyph-name="uni0E24" unicode="&#xe24;" horiz-adv-x="526" 
d="M477 -186q0 -13 -13 -13h-53q-5 0 -9 2.5t-4 10.5v510q0 35 -14 56.5t-35 33t-44.5 15.5t-41.5 4q-48 0 -80.5 -9.5t-41.5 -14.5q-5 -3 -6.5 -7.5t-1.5 -8.5v-302q0 -13 13 -13h34q13 0 11 -12l-8 -53q-2 -13 -15 -13h-101q-12 0 -12 13v434q0 13 12 18q39 20 85.5 32
t95.5 14q64 0 108 -16t71 -41t38.5 -55.5t11.5 -59.5v-525z" />
    <glyph glyph-name="uni0E25" unicode="&#xe25;" horiz-adv-x="492" 
d="M428 422q14 -30 14 -63v-346q0 -13 -13 -13h-53q-13 0 -13 13v205q0 13 -13 13h-130q-54 0 -85 -18.5t-31 -51.5v-23q0 -9 0.5 -16.5t0.5 -9.5q0 -17 10.5 -29.5t30.5 -12.5h21q5 0 11 1q13 0 13 -12l1 -49q0 -12 -12 -14q-10 -1 -17 -2q-3 -1 -6.5 -1h-5.5h-5
q-53 0 -84 33q-14 14 -21.5 28.5t-10.5 27.5q-4 15 -4 29v39q0 31 13 57.5t37 46.5q50 40 138 40h136q13 0 13 13v52q0 8 -2.5 21t-15 26t-38.5 22t-72 9q-51 0 -84.5 -11t-50.5 -19q-5 -2 -10 0t-7 6l-24 36q-3 4 -3 9t4 7q9 5 25.5 12.5t39.5 15t52.5 12.5t64.5 5
q25 0 53 -3.5t53.5 -13.5t46.5 -27t33 -44z" />
    <glyph glyph-name="uni0E26" unicode="&#xe26;" horiz-adv-x="529" 
d="M258 511q64 0 108 -16t71 -41t38.5 -55.5t11.5 -59.5v-525q0 -13 -12 -13h-54q-5 0 -9 2.5t-4 10.5v510q0 35 -14 56.5t-35 33t-44.5 15.5t-41.5 4q-48 0 -80.5 -9.5t-41.5 -14.5q-5 -3 -6.5 -7.5t-1.5 -8.5v-380q0 -13 -13 -13h-100q-13 0 -15 13l-8 52q-2 13 11 13h34
q13 0 13 13v356q0 13 12 18q39 20 85.5 32t95.5 14z" />
    <glyph glyph-name="uni0E27" unicode="&#xe27;" horiz-adv-x="409" 
d="M338 449q25 -32 37.5 -79t12.5 -112q0 -128 -50 -194q-51 -69 -149 -69q-24 0 -48.5 3.5t-48.5 8.5q-5 1 -8 6t-1 10l11 37q3 10 13 10q38 -8 74 -8q40 0 65.5 17t39 45t18.5 63t5 71q0 33 -4 66.5t-17.5 60.5t-39 44t-67.5 17q-33 0 -68.5 -7t-66.5 -23q-13 -6 -20 5
l-20 30q-7 10 4 18q3 2 17 9t36.5 15t54.5 14t71 6q97 0 149 -64z" />
    <glyph glyph-name="uni0E29" unicode="&#xe29;" horiz-adv-x="560" 
d="M534 296q13 0 11 -12l-7 -38q-2 -12 -15 -12h-31q-8 0 -9 -7v-63q0 -29 -11.5 -59.5t-38.5 -55.5t-70.5 -41t-107.5 -16h-7q-30 1 -61 8.5t-56 15.5q-30 10 -57 22q-2 0 -2 1q-10 5 -10 17v434q0 13 13 13h52q13 0 13 -13v-380q0 -4 1.5 -9t6.5 -7q9 -5 41 -14.5t81 -9.5
q18 0 41.5 4t44.5 15.5t35 33t14 56.5v46q0 9 -8 9h-76q-13 0 -11 12l7 38q2 12 15 12h65q8 0 8 9v185q0 13 13 13h53q12 0 12 -13v-187q1 -7 9 -7h42v0z" />
    <glyph glyph-name="uni0E2A" unicode="&#xe2a;" horiz-adv-x="551" 
d="M512 466q8 -8 3.5 -11.5t-7.5 -5.5q-13 -10 -29 -18q-11 -5 -22.5 -8.5t-23.5 -5.5q-1 0 -1 -3q1 -2 5.5 -18.5t4.5 -36.5v-347q0 -12 -13 -12h-53q-13 0 -13 12v206q0 13 -12 13h-131q-54 0 -85 -19t-31 -52v-22q0 -8 0.5 -16t0.5 -10q0 -17 11 -29.5t30 -12.5h21
q5 0 11 1q13 0 13 -12l1 -49q0 -12 -12 -14q-10 -1 -17 -2q-3 -1 -6.5 -1h-5.5h-5q-53 0 -84 33q-14 14 -20.5 28.5t-10.5 27.5q-4 15 -5 29v38q0 65 51 105q49 40 137 40h137q12 0 12 13v52q0 8 -2.5 21t-15 26t-38.5 22t-72 9q-51 0 -84.5 -11t-50.5 -19q-5 -2 -10 -0.5
t-7 6.5l-24 35q-3 4 -3 9t4 7q9 5 25.5 12.5t40 15t53 13t64.5 5.5q39 0 74.5 -7.5t60.5 -23.5q2 -2 9 -5t17 0q17 6 34 15q10 6 20 14q2 2 6.5 4t11.5 -5l36 -36v0z" />
    <glyph glyph-name="uni0E2C" unicode="&#xe2c;" horiz-adv-x="661" 
d="M587 645q8 2 11 -1.5t3 -16.5v-32q0 -31 -13 -58t-37 -46l-4.5 -4.5t1.5 -6.5q19 -18 30.5 -42t8.5 -49q0 -1 -2.5 -18t-6 -43.5l-8 -60l-9.5 -68.5l-25 -186q-2 -13 -15 -13h-43q-12 0 -19 11l-121 231q-3 6 -6.5 5t-5.5 -7l-122 -229q-6 -11 -19 -11h-43q-2 0 -4 2.5
t-5 17t-8.5 44t-13.5 84l-20 138l-28 204.5q-2 13 11 13h53q13 0 15 -13l48 -332v-25q0 -5 1 -5t3 5l6 25l59 113l52 103q2 5 8 8t11 3h3q13 0 19 -11l111 -216l7 -25q3 -11 3 0l1 25q9 67 17 120q3 22 6.5 44t6 39.5l4 28.5t1.5 12q3 16 -8 29.5t-29 24.5q-6 3 -10 7
q-4 3 -7 7.5t-2 11.5q1 5 1 8.5t1 6.5q2 5 5 7t5 3q5 2 10.5 4.5t7.5 3.5q19 11 29 26.5t11 40.5v38q0 13 8 15l14.5 2.5l17 3t15 3t9.5 1.5z" />
    <glyph glyph-name="uni0E2D" unicode="&#xe2d;" horiz-adv-x="482" 
d="M180 511q61 0 111 -19t86 -54.5t55.5 -85t19.5 -109.5q0 -57 -17.5 -103t-50 -78.5t-78.5 -49.5t-104 -17q-40 0 -81 7t-75 19q-2 1 -7 4t-5 13v245q0 13 13 13h112q13 0 15 -13l6 -37q2 -13 -11 -13h-46q-12 0 -12 -13v-131q0 -9 3.5 -12t8.5 -5q12 -3 24 -5
q11 -2 23 -3t23 -1q84 0 131 49.5t47 138.5q0 53 -17 90t-43.5 60t-59 33t-64.5 10q-26 0 -48.5 -4t-39.5 -9q-19 -5 -36 -12q-12 -3 -13 8q-2 7 -4.5 24.5t-4.5 27.5q-1 8 2 10t5 2q32 10 63 15t63 5h6v0z" />
    <glyph glyph-name="uni0E2E" unicode="&#xe2e;" horiz-adv-x="499" 
d="M477 466q8 -7 3.5 -11t-7.5 -6q-13 -10 -29 -18q-18 -8 -42 -13q-4 0 -1 -4q27 -34 41.5 -77.5t14.5 -94.5q0 -58 -17.5 -104t-50 -78.5t-78.5 -49.5t-104 -17q-40 0 -81.5 7t-75.5 19q-2 1 -6.5 4t-4.5 13v246q0 12 13 12h112q12 0 15 -12l5 -38q2 -13 -11 -13h-45
q-13 0 -13 -13v-132q0 -8 4 -11t9 -4q12 -3 24 -5q23 -5 45 -5q85 0 131.5 50t46.5 138q0 54 -17 90.5t-43 59.5t-59 33t-64 10q-26 0 -49 -3.5t-40 -8.5q-20 -5 -36 -12q-11 -4 -13 7l-3.5 24.5t-4.5 27.5q-2 8 1.5 10t4.5 2q30 10 63 15.5t70 5.5q42 0 78 -9t66 -26
q4 -2 9.5 -4.5t16.5 -0.5q13 4 26 9t22 10q5 4 10 7t10 8q2 2 6.5 3.5t11.5 -5.5q5 -4 16.5 -16z" />
    <glyph glyph-name="uni0E2F" unicode="&#xe2f;" horiz-adv-x="543" 
d="M430 -53q-15 -29 -39 -48q-25 -20 -63.5 -30t-83.5 -10q-11 0 -32.5 2.5t-38.5 11.5q-8 4 -3 14l18 41q3 4 5.5 5t8.5 0q8 -1 15.5 -1h12.5h11q46 0 71.5 9.5t37 22t13.5 26t2 21.5v204q0 12 -10 12q-16 -4 -34 -8q-15 -3 -33 -5t-35 -2q-39 0 -75.5 10t-61.5 30
q-51 40 -51 105v38q2 14 6 28q4 12 10.5 25.5t19.5 24.5q16 14 36.5 21t38.5 10q21 4 43 3q5 -1 9 -5t3 -9v-41q-2 -13 -14 -13h-11q-5 0 -10.5 -0.5t-10.5 -1.5q-14 -2 -22 -9t-12.5 -14.5t-6.5 -15t-2 -11.5q-1 -2 -0.5 -8t1.5 -14q1 -9 1 -19q6 -69 114 -69q16 -1 33 2
q14 2 30 6t30 12q3 1 7.5 6.5t4.5 15.5l2 172q0 12 13 12h52q13 0 13 -12v-480q0 -37 -13 -64z" />
    <glyph glyph-name="uni0E30" unicode="&#xe30;" horiz-adv-x="283" 
d="M220 402q13 0 11 -12l-9 -47q-2 -12 -15 -12h-158q-13 0 -13 12v75q0 13 13 15l35 6q13 2 13 -10v-14q0 -13 13 -13h110zM220 133q13 0 11 -13l-9 -46q-2 -13 -15 -13h-158q-13 0 -13 13v74q0 13 13 15l35 7q13 2 13 -11v-14q0 -12 13 -12h110z" />
    <glyph glyph-name="uni0E31" unicode="&#xe31;" 
d="M54 646q13 0 11 -12l-8 -42q-3 -12 -15 -12h-277q-5 0 -9 3.5t-4 8.5v68q0 5 4 9t9 5l35 5q5 2 9 -1t4 -8v-12q0 -12 13 -12h228z" />
    <glyph glyph-name="uni0E32" unicode="&#xe32;" horiz-adv-x="398" 
d="M175 507q58 0 94.5 -16t56.5 -40.5t27.5 -54t7.5 -56.5v-327q0 -13 -13 -13h-49q-13 0 -13 13v336q0 31 -12.5 49t-31 27.5t-41.5 12.5t-44 4q-21 0 -40 -3.5t-34 -8.5q-18 -5 -32 -13q-5 -3 -10.5 -1.5t-8.5 5.5l-19 30q-8 9 3 17q19 10 44 19q21 8 50.5 14t64.5 6z" />
    <glyph glyph-name="uni0E33" unicode="&#xe33;" horiz-adv-x="381" 
d="M-116 720q35 0 59 -24t24 -59q0 -34 -24 -58t-59 -24t-59 24t-24 58q0 35 24 59t59 24zM-116 604q14 0 23.5 10t9.5 24t-9.5 23.5t-23.5 9.5t-23.5 -9.5t-9.5 -23.5t9.5 -24t23.5 -10zM165 507q58 0 94.5 -16t56.5 -41t27.5 -54t7.5 -56v-328q0 -12 -13 -12h-49
q-13 0 -13 12v336q0 31 -12.5 49.5t-31 28t-41.5 12.5t-44 3q-21 1 -40 -2.5t-34 -8.5q-18 -5 -32 -13q-5 -3 -10.5 -2t-8.5 6l-19 29q-3 4 -2.5 9t5.5 9q19 10 44 19q21 8 50.5 14t64.5 6z" />
    <glyph glyph-name="uni0E34" unicode="&#xe34;" 
d="M-70 651q13 0 11 -13l-8 -45q-2 -13 -15 -13h-333q-13 0 -11 13l8 45q2 13 15 13h333z" />
    <glyph glyph-name="uni0E35" unicode="&#xe35;" 
d="M-136 705q0 13 13 13h51q13 0 13 -13v-112q0 -13 -13 -13h-348q-13 0 -10 12l8 47q2 12 15 12h258q13 0 13 13v41z" />
    <glyph glyph-name="uni0E36" unicode="&#xe36;" 
d="M-148 746q35 0 59 -24t24 -59q0 -16 -6.5 -31t-17.5 -26.5t-26 -18.5t-33 -7h-325q-13 0 -11 13l8 45q2 13 15 13h223q7 0 7.5 2.5t0.5 4.5q-1 2 -1 5q0 35 24.5 59t58.5 24zM-148 630q14 0 23.5 9.5t9.5 23.5t-9.5 23.5t-23.5 9.5t-23.5 -9.5t-9.5 -23.5t9.5 -23.5
t23.5 -9.5z" />
    <glyph glyph-name="uni0E37" unicode="&#xe37;" 
d="M-43 717q13 0 13 -13v-112q0 -12 -13 -12h-384q-5 0 -8.5 4t-1.5 9l8 45q2 13 15 13h193q13 0 13 13v40q0 13 13 13h36q13 0 13 -13v-40q0 -13 13 -13h13q13 0 13 13v40q0 13 12 13h52z" />
    <glyph glyph-name="uni0E38" unicode="&#xe38;" 
d="M-61 -75q13 0 13 -12v-173q0 -13 -13 -13h-51q-13 0 -13 13v108q0 13 -13 13h-38q-12 0 -10 12l7 40q2 12 15 12h103z" />
    <glyph glyph-name="uni0E39" unicode="&#xe39;" 
d="M-66 -75q13 0 13 -13v-76q0 -49 -29 -77.5t-88 -28.5q-47 0 -78 25t-33 76v17q0 12 -13 12h-40q-13 0 -11 13l7 39q2 13 15 13h92q13 0 13 -13v-86q2 -18 14 -30t34 -12q50 0 50 52v76q0 13 13 13h41v0z" />
    <glyph glyph-name="uni0E3A" unicode="&#xe3a;" 
d="M-35 -158q0 -27 -20 -46.5t-48 -19.5t-48.5 19.5t-20.5 46.5t20.5 47t48.5 20t48 -20t20 -47z" />
    <glyph glyph-name="uni0E3F" unicode="&#xe3f;" horiz-adv-x="540" 
d="M465 153q0 -69 -41 -108.5t-135 -44.5v-60q0 -14 -1.5 -19t-12.5 -5h-59q-15 0 -18.5 5t-3.5 18v60h-107q-11 0 -14 5t-3 16v537q0 14 2 21t14 7h108v62q0 14 3.5 18.5t18.5 4.5h59q11 0 12.5 -5t1.5 -19v-63q81 -7 124 -40.5t43 -105.5q0 -56 -26 -91t-66 -49
q21 -7 39.5 -17.5t32 -27.5t21.5 -41.5t8 -57.5zM162 349q0 -8 3 -11.5t13 -3.5h65q63 0 90.5 21.5t27.5 69.5q0 52 -30.5 72.5t-90.5 20.5h-63q-9 -1 -12 -5.5t-3 -9.5v-154zM241 67q64 0 96.5 19.5t32.5 72.5q0 51 -33 75.5t-92 24.5h-65q-10 0 -13 -3.5t-3 -11.5v-162
q0 -5 2.5 -10t11.5 -5h63z" />
    <glyph glyph-name="uni0E40" unicode="&#xe40;" horiz-adv-x="201" 
d="M137 12q0 -12 -12 -12h-53q-13 0 -13 12v478q0 13 13 13h53q12 0 12 -13v-478z" />
    <glyph glyph-name="uni0E41" unicode="&#xe41;" horiz-adv-x="368" 
d="M140 12q0 -12 -13 -12h-53q-12 0 -12 12v478q0 13 12 13h53q13 0 13 -13v-478zM315 12q0 -12 -13 -12h-52q-13 0 -13 12v478q0 13 13 13h52q13 0 13 -13v-478z" />
    <glyph glyph-name="uni0E42" unicode="&#xe42;" horiz-adv-x="222" 
d="M242 800q13 0 11 -13l-6 -39q-2 -13 -15 -13h-176q-11 0 -18.5 -7t-7.5 -24t10 -28t32 -21q4 -2 17 -10t26.5 -26t24 -48.5t10.5 -77.5v-480q0 -13 -13 -13h-53q-12 0 -12 13v504q0 27 -6.5 43.5t-16 26.5t-19.5 15t-16 10q-24 17 -36.5 38.5t-12.5 53.5q0 26 9 44
t23 29.5t31.5 17t34.5 5.5h179v0z" />
    <glyph glyph-name="uni0E43" unicode="&#xe43;" horiz-adv-x="232" 
d="M178 790q3 -1 14 -6.5t23.5 -16.5t22 -29t9.5 -43q0 -32 -12.5 -54t-36.5 -39q-6 -5 -16 -10t-19.5 -15t-16 -26.5t-6.5 -43.5v-494q0 -13 -12 -13h-53q-13 0 -13 13v471q0 46 10.5 76.5t24 48.5t26 26t17.5 10q22 10 32 21t10 29q0 9 -3.5 17t-15 14.5t-33.5 10.5t-59 4
q-24 0 -49.5 -6.5t-41.5 -12.5q-5 -2 -9.5 -0.5t-5.5 9.5q-1 4 -2.5 12.5t-2.5 16.5q-2 8 1.5 12t8.5 6q20 7 45 13t50 8q27 2 56.5 0.5t56.5 -9.5z" />
    <glyph glyph-name="uni0E44" unicode="&#xe44;" horiz-adv-x="228" 
d="M240 800q13 0 13 -13v-40q0 -58 -48 -91q-6 -5 -16 -10t-19 -15t-15.5 -26.5t-6.5 -42.5v-549q0 -13 -12 -13h-52q-13 0 -13 13v526q0 46 8.5 74t20.5 44.5t25 24l22 12.5q15 10 25.5 14.5t14.5 14.5q1 2 1 7t-7 5h-202q-5 -1 -8.5 3t-2.5 9l7 40q2 13 15 13h250v0z" />
    <glyph glyph-name="uni0E45" unicode="&#xe45;" horiz-adv-x="381" 
d="M164 509q58 0 94.5 -16t57 -41t28 -54t7.5 -56v-524q0 -13 -13 -13h-50q-12 0 -12 13v532q0 31 -12.5 49.5t-31.5 28t-42 12.5t-44 3q-20 1 -39.5 -3t-33.5 -9q-18 -6 -32 -13q-11 -5 -19 5l-20 29q-2 4 -1.5 9t5.5 9q19 10 44 19q21 8 50 14t64 6z" />
    <glyph glyph-name="uni0E46" unicode="&#xe46;" horiz-adv-x="514" 
d="M408 467q34 -40 34 -104v-550q0 -13 -13 -13h-45q-13 0 -13 13v550q0 11 -1 22.5t-6.5 21.5t-16.5 17t-31 10q-9 1 -14.5 -3t-11.5 -9l-16 -15.5t-13 -11.5q-8 -6 -12.5 -6.5t-12.5 6.5l-12.5 12.5t-15.5 14.5q-6 5 -10.5 9.5t-15.5 2.5q-20 -3 -30.5 -11t-15.5 -18.5
t-6 -23.5t-1 -26q0 -27 14.5 -40t24.5 -15l7 -3.5t4 -10.5q-2 -8 -3 -17t-2 -14q-2 -14 -14 -14q-22 2 -40.5 12.5t-32.5 26.5t-22 37.5t-8 45.5q0 41 12 66.5t23 37.5q19 22 43 33.5t59 13.5q3 0 8.5 -1.5t14.5 -11.5q5 -7 11.5 -14t9.5 -11q11 -14 22 0q3 4 9.5 11
l12.5 14q8 9 14.5 11t9.5 2q35 -2 59 -13.5t43 -33.5z" />
    <glyph glyph-name="uni0E47" unicode="&#xe47;" 
d="M-116 754q9 0 9 -9q0 -10 -2.5 -20.5t-4.5 -21.5q-3 -7 -12 -9h-196q-19 0 -25 -8.5t-6 -19.5q0 -12 5 -22t25 -10h29q17 0 28 5.5t17 12.5q4 4 9 8t14 2l98 -23q5 -2 8.5 -6.5t3.5 -9.5v-36q0 -12 -12 -9l-57 16t-33 9q-9 3 -14 -0.5l-12 -8.5q-8 -7 -22.5 -13.5
t-36.5 -6.5h-28q-15 0 -30.5 5t-28 16t-21 28t-8.5 40q0 37 26.5 64t85.5 27h191v0z" />
    <glyph glyph-name="uni0E48" unicode="&#xe48;" 
d="M-72 896q13 0 13 -13v-110q0 -13 -13 -13h-52q-13 0 -13 13v110q0 13 13 13h52z" />
    <glyph glyph-name="uni0E49" unicode="&#xe49;" 
d="M-45 826q5 0 8 -3.5t2 -8.5l-7 -43q-4 -11 -14 -11h-186q-5 0 -8.5 3t-3.5 8v41q0 5 -3.5 8.5t-8.5 3.5h-35q-5 0 -8 3t-1 8l12 43q1 4 5 7.5t9 3.5h74q5 0 8.5 -3.5t3.5 -8.5v-40q0 -11 12 -11h141z" />
    <glyph glyph-name="uni0E4A" unicode="&#xe4a;" 
d="M-38 889q11 2 11 -9v-10q0 -16 -4 -32q-3 -14 -10 -28t-20 -25q-14 -10 -27 -15t-24 -7.5t-19 -2.5h-10q-11 2 -12 11v8q0 11 -5.5 25t-28.5 18q-7 2 -15 -4.5t-15 -14.5q-2 -3 -6.5 -3t-7.5 3l-15 14.5t-15 4.5q-16 -3 -20 -12t-5 -19v-21q0 -10 -11 -10h-32
q-11 0 -11 11l-1 15q0 34 22 55q21 22 58 25q10 1 16 -7t14 -20q7 -7 13 0l16 19.5t15 7.5q46 -3 68 -25q6 -5 11 -14t7 -17q2 -9 7 -2q2 6 4 14t2 18q0 7 -0.5 12.5t-0.5 9.5q-1 4 -1 7q-1 4 1 7.5t7 3.5q16 3 24.5 5t13.5 3l6 1v0z" />
    <glyph glyph-name="uni0E4B" unicode="&#xe4b;" 
d="M-1 829q0 -13 -13 -13h-32q-13 0 -13 -13v-30q0 -13 -13 -13h-47q-13 0 -13 13v30q0 13 -13 13h-32q-13 0 -13 13v25q0 13 13 13h32q13 0 13 13v28q0 13 13 13h47q13 0 13 -13v-28q0 -13 13 -13h32q13 0 13 -13v-25z" />
    <glyph glyph-name="uni0E4C" unicode="&#xe4c;" 
d="M-33 823l-9 -38q-2 -13 -15 -13h-107q-9 0 -9 -9v-17q0 -13 -13 -11l-35 7q-13 2 -13 15v65q0 13 13 13h178q5 0 8.5 -3.5t1.5 -8.5z" />
    <glyph glyph-name="uni0E4E" unicode="&#xe4e;" 
 />
    <glyph glyph-name="uni0E4F" unicode="&#xe4f;" horiz-adv-x="520" 
d="M425 200q0 -34 -13 -63.5t-35 -51.5t-51.5 -35t-62.5 -13t-62.5 13t-51.5 35t-35 51.5t-13 63.5q0 33 13 62.5t35 51.5t51.5 35t62.5 13t62.5 -13t51.5 -35t35 -51.5t13 -62.5zM400 200q0 28 -10.5 53t-29.5 43.5t-44 29.5t-53 11q-29 0 -53.5 -11t-43.5 -29.5
t-29.5 -43.5t-10.5 -53q0 -29 10.5 -54t29.5 -43.5t43.5 -29.5t53.5 -11q28 0 53 11t44 29.5t29.5 43.5t10.5 54zM357 200q0 -20 -7.5 -37.5t-20.5 -30t-30 -20t-36 -7.5q-20 0 -37 7.5t-30 20.5t-20 30t-7 36q0 20 7.5 37t20 30t29.5 20t36 7q20 0 37.5 -7.5t30 -20
t20 -29.5t7.5 -36z" />
    <glyph glyph-name="uni0E50" unicode="&#xe50;" horiz-adv-x="518" 
d="M260 393q37 0 72.5 -10t63.5 -31t45.5 -53.5t17.5 -77.5v-52q0 -78 -51 -125t-148 -47q-44 0 -79.5 12.5t-61 35t-39.5 54t-14 70.5v52q0 39 14 70.5t39.5 54t61 35t79.5 12.5zM260 64q53 0 86.5 30t33.5 90v22q0 54 -25.5 87t-94.5 33q-60 0 -88 -33t-28 -87v-22
q0 -54 28 -87t88 -33z" />
    <glyph glyph-name="uni0E51" unicode="&#xe51;" horiz-adv-x="544" 
d="M268 386q44 0 81 -10.5t63.5 -28t41.5 -40.5t15 -48v-170q0 -27 -9.5 -56t-32 -53t-59.5 -40.5t-92 -20.5q-3 -1 -8 1t-7 11q-2 10 -4 21.5t-3 16.5q-2 9 4 11t7 2q18 0 40 4.5t41.5 16t32.5 32.5t13 55l-1 157q0 32 -31.5 52.5t-91.5 20.5q-47 0 -78.5 -16t-45.5 -45
v-129q0 -19 10 -35t32 -16h33q5 1 9 -3t4 -9l1 -49q0 -13 -13 -15q-10 -1 -17 -2q-3 -1 -6.5 -1h-5.5h-5q-27 0 -49 10.5t-37.5 28t-24.5 41.5t-9 51v141q23 59 76 86.5t126 27.5z" />
    <glyph glyph-name="uni0E52" unicode="&#xe52;" horiz-adv-x="603" 
d="M498 340q38 -40 38 -104v-116q0 -53 -33 -84q-14 -14 -28.5 -21.5t-27.5 -10.5q-15 -4 -29 -4h-230q-24 0 -45.5 9.5t-37.5 26t-25.5 38t-9.5 46.5v342q0 13 12 15l52 9q12 3 12 -10v-356q0 -22 12.5 -32t41.5 -10h207q20 0 36 9.5t17 32.5v116v6.5t-1 7.5q0 9 -1.5 18.5
t-7 17t-16 13.5t-28.5 8q-9 0 -17 -5q-4 -3 -8 -5l-39 -34q-9 -7 -19 1l-36 32l-8 6q-8 5 -18 5q-17 -3 -28 -9q-2 -1 -9 -3t-15 10l-10 17.5t-9 16.5q-5 8 -1.5 14.5t6.5 8.5q16 11 34.5 17t44.5 7q5 0 9 -2l8 -4l8 -6l26 -29q9 -9 17 0l28 29q3 3 7 6q8 6 18 6
q37 -2 60 -13t43 -33z" />
    <glyph glyph-name="uni0E53" unicode="&#xe53;" horiz-adv-x="585" 
d="M503 13q0 -13 -13 -13h-52q-12 0 -12 13v224q0 11 -2 22.5t-8 21.5t-18 17t-34 10q-3 1 -10 0t-16 -10l-19.5 -17l-15.5 -13q-8 -8 -13 -8t-13 8q-5 5 -14.5 13t-17.5 16q-11 10 -17 11t-9 0q-22 -3 -34 -10t-18 -17t-7 -21.5t-1 -22.5v-115q0 -6 2.5 -19.5t11.5 -22.5
q1 -2 7.5 -6t19.5 -4h22q5 0 11 1q13 0 13 -12l1 -50q0 -12 -13 -14l-12 -2q-5 -1 -11 -1h-11q-28 0 -49.5 10t-34.5 23q-13 14 -20.5 29.5t-11 30t-4 25t-0.5 13.5v114q0 64 38 104q21 22 48 33.5t65 13.5q5 0 9 -2.5t8 -4.5l8 -6q3 -4 7 -8q3 -4 6.5 -8t8.5 -9
q9 -10 12 -10t12 10q5 5 9.5 9t7.5 8q4 4 7 8l8 6q4 2 8 4.5t9 2.5q38 -2 65.5 -13.5t48.5 -33.5q38 -40 38 -104v-224z" />
    <glyph glyph-name="uni0E54" unicode="&#xe54;" horiz-adv-x="558" 
d="M495 487q13 2 13 -11v-46q0 -27 -10 -48.5t-26.5 -36t-36.5 -22t-41 -8.5h-146q-54 0 -86 -34t-32 -94q0 -48 16 -80.5t45 -32.5h57q10 0 30 10q4 3 8 8t4 17q0 31 10 53.5t26 39t37 27.5t42 18q4 1 8.5 0t6.5 -9t3.5 -19.5t3.5 -17.5q2 -10 -3 -12.5t-8 -4.5
q-21 -7 -36.5 -21.5t-15.5 -40.5q0 -10 1 -18t12 -12q3 -1 20 -4t37 -7q23 -4 51 -10q12 -2 12 -15l-4 -42q-2 -13 -14 -10l-60 12q-23 5 -43 8.5t-24 4.5q-8 2 -15 -1.5l-11 -5.5q-13 -8 -26 -12.5t-24 -6.5t-18.5 -2.5t-10.5 -0.5h-69q-25 0 -46 15.5t-36 41.5t-23.5 59.5
t-8.5 70.5q0 44 12 80.5t33.5 63t53 41.5t70.5 15h131q20 0 32.5 0.5t20 5.5t10 16t2.5 31v27q0 7 13 11l53 9v0z" />
    <glyph glyph-name="uni0E55" unicode="&#xe55;" horiz-adv-x="563" 
d="M253 315q-54 0 -85.5 -34t-31.5 -94q0 -48 16 -80.5t45 -32.5h57q4 0 12.5 2.5t16.5 7.5q5 2 9 7.5t4 17.5q0 30 10 53t26 39.5t37 27.5t42 18q3 1 8 0t7 -9t3.5 -19.5t2.5 -17.5q2 -10 -2.5 -12.5t-7.5 -4.5q-21 -8 -36.5 -22.5t-15.5 -40.5v-13q0 -13 13 -16
q3 -1 20 -4t37 -7q23 -4 51 -10q13 -2 11 -15l-4 -42q0 -5 -4 -8.5t-9 -1.5q-33 7 -60 12q-23 5 -43.5 8.5t-24.5 4.5q-8 2 -15 -1.5t-10 -5.5q-26 -16 -50 -19t-30 -3h-68q-25 0 -46 15.5t-36.5 41.5t-24 59.5t-8.5 70.5q0 83 40.5 137.5t110.5 61.5q-4 8 -6.5 17.5
t-2.5 19.5q0 33 23.5 56.5t56.5 23.5q34 0 57.5 -23.5t23.5 -56.5q0 -10 -2.5 -19t-6.5 -17h6q20 0 33 0.5t20.5 5.5t10 15.5t2.5 31.5v27q0 7 13 11l53 9q13 2 13 -11v-46q0 -27 -10 -48.5t-26.5 -36t-36.5 -22t-41 -8.5h-147zM291 451q-13 0 -22.5 -9t-9.5 -23t9.5 -23
t22.5 -9q14 0 23 9t9 23t-9 23t-23 9z" />
    <glyph glyph-name="uni0E56" unicode="&#xe56;" horiz-adv-x="554" 
d="M334 387q36 0 67 -13t53.5 -37t35.5 -59t13 -79t-12 -80.5t-33.5 -63t-53 -41t-70.5 -14.5h-86q-3 0 -14 0.5t-25 4t-30 11t-29 20.5q-34 34 -34 84v8.5t1 13.5q0 8 1 18q2 13 14 15l51 9q13 2 13 -10q-1 -15 -1 -26v-34q0 -13 3 -19t6 -9q8 -8 19.5 -10.5t19.5 -3.5h76
q54 0 85.5 31.5t31.5 97.5q0 32 -8.5 54t-24.5 35.5t-37.5 19t-46.5 5.5h-146q-21 1 -41 8.5t-36.5 22t-26.5 36t-10 48.5v46q0 13 13 11l53 -9q11 -3 13 -13v-27q0 -20 2.5 -30.5t10 -15t20 -5t32.5 -0.5h131v0z" />
    <glyph glyph-name="uni0E57" unicode="&#xe57;" horiz-adv-x="715" 
d="M623 487q13 2 13 -11v-342q0 -28 -8.5 -52.5t-24.5 -42.5t-40.5 -28.5t-55.5 -10.5h-82q-13 0 -13 13l1 223q-1 11 -2.5 22.5t-7.5 21.5t-18.5 17t-34.5 10q-3 1 -9.5 0t-15.5 -10q-9 -8 -19.5 -16.5t-15.5 -13.5q-8 -8 -13 -8t-13 8q-5 5 -14.5 13.5t-18.5 15.5
q-11 10 -16.5 11t-8.5 0q-22 -3 -34 -10t-18 -17t-7.5 -21.5t-1.5 -22.5v-115q0 -19 9.5 -35.5t32.5 -16.5h21q5 0 11 1q5 1 9 -3t4 -9l1 -50q0 -12 -12 -14l-12 -2q-5 -1 -11 -1h-11q-27 0 -49 10t-37.5 28t-24.5 42t-9 51v114q0 64 38 104q21 22 47.5 33.5t65.5 13.5
q5 0 8.5 -2.5t7.5 -4.5l8 -6q3 -4 7 -8q3 -4 7 -8l9 -9q9 -10 12 -10t12 10q5 5 8.5 9t7.5 8l8 8l8 6q4 2 8 4.5t9 2.5q38 -2 65.5 -13.5t47.5 -33.5q38 -40 38 -104v-168q0 -6 4 -8q2 -1 5 -1q28 0 43.5 19t15.5 47v338q0 11 13 15l53 9v0z" />
    <glyph glyph-name="uni0E58" unicode="&#xe58;" horiz-adv-x="557" 
d="M503 492q13 2 13 -11v-46q0 -27 -10 -48.5t-26.5 -36t-36.5 -22t-41 -8.5h-147q-71 0 -100 -54q-17 -31 -17 -73q0 -37 6.5 -59.5t17.5 -35.5t25.5 -18.5t29.5 -6.5q10 -1 15 2t11 8l19.5 17.5t15.5 13.5q13 11 26 -1q4 -4 14 -12.5t18 -16.5q5 -5 11 -8.5t15 -2.5
q21 3 33 10t18 16.5t7.5 20.5t1.5 22q0 4 -1 10t-3 13q-1 3 -1 9t9 13q5 4 13.5 10t16.5 11q9 6 13.5 3t6.5 -7q8 -19 10.5 -35.5t2.5 -24.5q0 -64 -38 -104q-20 -20 -44 -31.5t-58 -14.5q-5 -1 -9 1.5l-7 4.5q-4 3 -7 6l-9 9q-4 4 -7.5 8t-6.5 8q-13 14 -25 0
q-4 -4 -7.5 -8t-7.5 -8l-9 -9q-3 -3 -7 -6q-3 -2 -8 -4.5t-10 -1.5q-38 2 -65 13t-48 33q-14 15 -29.5 54.5t-15.5 98.5q0 17 2 32t5 29q9 39 28.5 68.5t48.5 46.5q37 23 85 23h131q20 0 33 0.5t20.5 5.5t10 15.5t2.5 31.5v27q0 8 13 10l53 10v0z" />
    <glyph glyph-name="uni0E59" unicode="&#xe59;" horiz-adv-x="559" 
d="M531 487q13 2 13 -11v-47q0 -27 -10 -48.5t-26.5 -36t-36.5 -22.5t-41 -8h-31q-27 0 -44 -8.5t-30 -25.5q-2 -3 -4.5 -9t2.5 -17q1 -3 7 -15l15 -29.5l20 -39l22 -43.5l58 -115q5 -12 -7 -12h-50q-12 0 -19 12l-70 137l-26.5 51l-23 45.5l-17.5 34l-8 15.5
q-5 9 -10.5 10.5t-8.5 1.5q-22 -3 -34 -10t-18 -17t-7.5 -21.5t-1.5 -22.5v-115q0 -5 3 -19t12 -23q2 -3 8.5 -6t18.5 -3h17q6 0 15 1q13 0 13 -13l1 -49q0 -13 -12 -15l-16 -2q-6 -1 -11 -1h-7q-52 0 -84 34q-14 13 -21 29t-10.5 30t-4 25t-0.5 14v113q0 64 38 104
q21 22 59 33.5t80 13.5q3 0 8.5 -2.5t10.5 -10.5l12 -24q6 -11 10 -8t10 8q8 7 19 13q18 11 37 16.5t44 5.5h30.5t22.5 4.5t13.5 15.5t4.5 33v27q2 10 13 13l53 9v0z" />
    <glyph glyph-name="endash" unicode="&#x2013;" horiz-adv-x="473" 
d="M473 230q0 -12 -5.5 -16t-23.5 -4h-423q-12 0 -16.5 3.5t-4.5 13.5v39q0 15 5 17t19 2h420q15 0 22 -2t7 -13v-40v0z" />
    <glyph glyph-name="emdash" unicode="&#x2014;" horiz-adv-x="769" 
d="M769 230q0 -13 -6 -16.5t-25 -3.5h-716q-22 0 -22 17v39q0 14 5 16.5t19 2.5h714q16 0 23.5 -2t7.5 -14v-39v0z" />
    <glyph glyph-name="quoteleft" unicode="&#x2018;" horiz-adv-x="200" 
d="M37 468q11 48 39 87t63 63q5 4 10.5 3t10 -4t6.5 -7t0 -8q-14 -29 -23.5 -66.5t-11.5 -65.5q-1 -19 -15 -19h-61q-14 0 -17 4.5t-1 12.5z" />
    <glyph glyph-name="quoteright" unicode="&#x2019;" horiz-adv-x="200" 
d="M165 603q-11 -48 -39 -87t-63 -63q-5 -4 -10.5 -3.5t-10 3.5t-6.5 7.5t0 8.5q14 29 23.5 66.5t11.5 65.5q1 19 15 19h61q14 0 17 -4.5t1 -12.5z" />
    <glyph glyph-name="quotesinglbase" unicode="&#x201a;" horiz-adv-x="201" 
d="M158 62q-11 -48 -39 -86.5t-63 -62.5q-5 -4 -10.5 -3.5t-10 3.5t-6.5 7.5t0 8.5q14 29 23.5 66.5t11.5 65.5q1 9 4 14t12 5h60q14 0 17 -5t1 -13z" />
    <glyph glyph-name="quotedblleft" unicode="&#x201c;" horiz-adv-x="351" 
d="M190 468q11 48 39 87t63 63q5 4 10.5 3t10 -4t6.5 -7t0 -8q-6 -15 -12 -32t-11 -35t-8 -35t-4 -30q-1 -10 -4 -15t-11 -5h-61q-14 0 -17 5t-1 13zM34 468q11 48 39 87t63 63q5 4 10.5 3t10 -4t6.5 -7t0 -8q-6 -15 -12 -32t-11 -35t-8 -35t-4 -30q-1 -10 -4 -15t-11 -5
h-61q-14 0 -17 5t-1 13z" />
    <glyph glyph-name="quotedblright" unicode="&#x201d;" horiz-adv-x="349" 
d="M165 604q-11 -48 -39 -87t-63 -63q-5 -4 -10.5 -3.5t-10 3.5t-6.5 7.5t0 8.5q6 15 12 32t11 35t8 34.5t4 30.5q1 10 4 15t11 5h61q14 0 17 -5t1 -13zM321 604q-11 -48 -39 -87t-63 -63q-5 -4 -10.5 -3.5t-10 3.5t-6.5 7.5t0 8.5q6 15 12 32t11 35t8 34.5t4 30.5
q1 10 4 15t11 5h61q14 0 17 -5t1 -13z" />
    <glyph glyph-name="quotedblbase" unicode="&#x201e;" horiz-adv-x="349" 
d="M320 63q-11 -48 -39 -86.5t-63 -62.5q-5 -4 -10.5 -3.5t-10 3.5t-6.5 7.5t0 8.5q14 29 23.5 66.5t11.5 65.5q1 9 4 14t11 5h61q14 0 17 -5t1 -13zM164 63q-11 -48 -39 -86.5t-63 -62.5q-5 -4 -10.5 -3.5t-10 3.5t-6.5 7.5t0 8.5q14 29 23.5 66.5t11.5 65.5q1 9 4 14t11 5
h61q14 0 17 -5t1 -13z" />
    <glyph glyph-name="dagger" unicode="&#x2020;" horiz-adv-x="500" 
d="M398 318q0 -13 -7 -15.5t-23 -2.5h-83v-212q0 -15 -3 -19t-12 -4h-40q-11 0 -15.5 4.5t-4.5 20.5v210h-89q-12 0 -16.5 3.5t-4.5 12.5v32q0 15 5.5 17t19.5 2h85v105q0 12 4 18t16 6h39q12 0 14 -5.5t2 -18.5v-105h85q15 0 21.5 -2t6.5 -13v-34v0z" />
    <glyph glyph-name="daggerdbl" unicode="&#x2021;" horiz-adv-x="500" 
d="M294 -140h-92h92zM399 302q0 -14 -7 -16.5t-23 -2.5h-83v-56h87q14 0 18.5 -2.5t4.5 -15.5v-31q0 -14 -6.5 -16t-20.5 -2h-83v-99q0 -16 -2.5 -19.5t-12.5 -3.5h-39q-12 0 -16 4.5t-4 20.5v97h-88q-14 0 -19 3t-5 11v33q0 14 5.5 17t20.5 3h86v56h-90q-12 0 -16.5 3.5
t-4.5 13.5v31q0 15 5.5 17.5t19.5 2.5h86v93q0 12 3.5 18t15.5 6h39q12 0 14 -5t2 -19v-93h85q16 0 22 -2.5t6 -13.5v-33z" />
    <glyph glyph-name="bullet" unicode="&#x2022;" horiz-adv-x="354" 
d="M266 301q0 -38 -26.5 -64.5t-64.5 -26.5t-64.5 26.5t-26.5 64.5t26.5 64.5t64.5 26.5t64.5 -26.5t26.5 -64.5z" />
    <glyph glyph-name="ellipsis" unicode="&#x2026;" horiz-adv-x="1000" 
d="M177 29q0 -11 -2 -20t-17 -9h-62q-15 0 -20.5 7.5t-5.5 18.5v43q0 8 4 15t12 7h66q17 0 21 -5t4 -14v-43zM373 29q0 -11 -2 -20t-17 -9h-62q-15 0 -20.5 7.5t-5.5 18.5v43q0 8 4 15t12 7h66q17 0 21 -5t4 -14v-43zM566 29q0 -11 -2.5 -20t-17.5 -9h-61q-15 0 -20.5 7.5
t-5.5 18.5v43q0 8 4 15t12 7h66q17 0 21 -5t4 -14v-43z" />
    <glyph glyph-name="perthousand" unicode="&#x2030;" horiz-adv-x="890" 
d="M850 91q0 -29 -9.5 -48t-25 -30.5t-35 -16.5t-39.5 -5q-52 0 -83.5 24.5t-31.5 75.5v93q0 57 31.5 85t83.5 28q19 0 38.5 -5t35.5 -17.5t25.5 -33t9.5 -51.5v-99zM580 91q0 -29 -9.5 -48t-25 -30.5t-35 -16.5t-39.5 -5q-53 0 -84.5 24.5t-31.5 75.5v93q0 57 31.5 85
t84.5 28q19 0 38.5 -5t35.5 -17.5t25.5 -33t9.5 -51.5v-99zM209 23q-7 -14 -11.5 -18.5t-13.5 -4.5h-36q-13 0 -16 5.5t5 20.5l279 543q8 13 12.5 17.5t19.5 4.5h37q11 0 11.5 -5t-7.5 -19zM264 388q0 -29 -9.5 -48t-25 -30.5t-35 -16.5t-39.5 -5q-52 0 -83.5 24.5
t-31.5 75.5v94q0 56 31.5 84t83.5 28q20 0 39.5 -5t35 -17.5t25 -33t9.5 -51.5v-99zM788 175q0 24 -10 42t-35 18q-32 0 -42 -17.5t-10 -45.5v-74q0 -20 12.5 -34t37.5 -14t36 15t11 31v79zM517 175q0 24 -10 42t-35 18q-31 0 -41.5 -17.5t-10.5 -45.5v-74q0 -20 12.5 -34
t38.5 -14q25 0 35.5 15t10.5 31v79zM201 472q0 25 -10 43t-35 18q-31 0 -41.5 -17.5t-10.5 -46.5v-74q0 -21 12.5 -34.5t38.5 -13.5q25 0 35.5 14.5t10.5 31.5v79z" />
    <glyph glyph-name="guilsinglleft" unicode="&#x2039;" horiz-adv-x="270" 
d="M226 84q10 -14 -2 -20l-40 -22q-13 -7 -22 10l-122 173l119 175q5 8 10 11t12 -2l40 -22q7 -5 6.5 -9.5t-6.5 -13.5l-97 -139l102 -141v0z" />
    <glyph glyph-name="guilsinglright" unicode="&#x203a;" horiz-adv-x="270" 
d="M44 64q-12 6 -2 20l102 141l-97 139q-6 9 -6.5 13.5t6.5 9.5l40 22q7 5 12 2t10 -11l119 -175l-122 -173q-9 -17 -22 -10l-40 22v0z" />
    <glyph glyph-name="fraction" unicode="&#x2044;" horiz-adv-x="422" 
d="M17 -165h-67l455 987h67z" />
    <glyph glyph-name="trademark" unicode="&#x2122;" horiz-adv-x="785" 
d="M653 359h-31q-9 0 -12 3t-3 12v214q0 6 -1 6t-5 -5l-70 -115q-5 -8 -6.5 -10t-5.5 -2h-10q-5 0 -6.5 2t-6.5 10l-65 112q-8 13 -8 -1v-215q0 -5 -1.5 -8t-9.5 -3h-30q-6 0 -10.5 2t-4.5 13v284q0 14 12 14h35q10 0 15 -8l84 -132q3 -4 6 -1l83 132q4 9 14 9h38
q8 0 9 -3.5t1 -11.5v-286q0 -12 -11 -12zM321 631h-75q-8 0 -9.5 -1.5t-1.5 -7.5v-248q0 -9 -2 -12t-10 -3h-32q-8 0 -10 2.5t-2 12.5v248q0 6 -1.5 7.5t-8.5 1.5h-75q-6 0 -7.5 1.5t-1.5 4.5v28q0 7 13 7h219q14 0 14 -6v-29q0 -6 -10 -6z" />
    <glyph glyph-name="minus" unicode="&#x2212;" horiz-adv-x="584" 
d="M528 394v-82h-472v82h472z" />
    <glyph glyph-name="uni0E34.alt1" unicode="&#xf701;" 
d="M-198 651q13 0 11 -13l-8 -45q-2 -13 -15 -13h-333q-13 0 -11 13l8 45q2 13 15 13h333z" />
    <glyph glyph-name="uni0E35.alt1" unicode="&#xf702;" 
d="M-267 705q0 13 13 13h51q13 0 13 -13v-112q0 -13 -13 -13h-348q-13 0 -10 12l8 47q2 12 15 12h258q13 0 13 13v41z" />
    <glyph glyph-name="uni0E36.alt1" unicode="&#xf703;" 
d="M-263 746q35 0 59 -24t24 -59q0 -16 -6.5 -31t-17.5 -26.5t-26 -18.5t-33 -7h-325q-13 0 -11 13l8 45q2 13 15 13h223q7 0 7.5 2.5t0.5 4.5q-1 2 -1 5q0 35 24.5 59t58.5 24zM-263 630q14 0 23.5 9.5t9.5 23.5t-9.5 23.5t-23.5 9.5t-23.5 -9.5t-9.5 -23.5t9.5 -23.5
t23.5 -9.5z" />
    <glyph glyph-name="uni0E37.alt1" unicode="&#xf704;" 
d="M-204 717q13 0 13 -13v-112q0 -12 -13 -12h-384q-5 0 -8.5 4t-1.5 9l8 45q2 13 15 13h193q13 0 13 13v40q0 13 13 13h36q13 0 13 -13v-40q0 -13 13 -13h13q13 0 13 13v40q0 13 12 13h52z" />
    <glyph glyph-name="uni0E48.alt1" unicode="&#xf705;" 
d="M-252 745q13 0 13 -13v-130q0 -13 -13 -13h-52q-13 0 -13 13v130q0 13 13 13h52z" />
    <glyph glyph-name="uni0E49.alt1" unicode="&#xf706;" 
d="M-190 672q13 0 11 -13l-8 -47q-3 -12 -15 -12h-204q-13 0 -13 12v45q0 13 -13 13h-39q-5 0 -8.5 3.5t-1.5 8.5l13 47q2 5 6.5 8.5t9.5 3.5h81q13 0 13 -13v-43q0 -13 13 -13h155z" />
    <glyph glyph-name="uni0E4A.alt1" unicode="&#xf707;" 
d="M-191 729q11 2 11 -9v-10q0 -16 -4 -32q-3 -14 -10 -28t-20 -25q-14 -10 -27 -15t-24 -7.5t-19 -2.5h-10q-11 2 -12 11v8q0 11 -5.5 25t-28.5 18q-7 2 -15 -4.5t-15 -14.5q-2 -3 -6.5 -3t-7.5 3l-15 14.5t-15 4.5q-16 -3 -20 -12t-5 -19v-21q0 -10 -11 -10h-32
q-11 0 -11 11l-1 15q0 34 22 55q21 22 58 25q10 1 16 -7t14 -20q7 -7 13 0l16 19.5t15 7.5q46 -3 68 -25q6 -5 11 -14t7 -17q2 -9 7 -2q2 6 4 14t2 18q0 7 -0.5 12.5t-0.5 9.5q-1 4 -1 7q-1 4 1 7.5t7 3.5q16 3 24.5 5t13.5 3l6 1v0z" />
    <glyph glyph-name="uni0E4B.alt1" unicode="&#xf708;" 
d="M-202 668q0 -13 -13 -13h-32q-13 0 -13 -13v-30q0 -13 -13 -13h-47q-13 0 -13 13v30q0 13 -13 13h-32q-13 0 -13 13v25q0 13 13 13h32q13 0 13 13v28q0 13 13 13h47q13 0 13 -13v-28q0 -13 13 -13h32q13 0 13 -13v-25z" />
    <glyph glyph-name="uni0E4C.alt1" unicode="&#xf709;" 
d="M-317 681q-9 0 -9 -9v-17q0 -13 -13 -11l-35 7q-13 2 -13 15v74q0 13 13 13h222q5 0 8.5 -3.5t1.5 -8.5l-9 -47q-2 -13 -15 -13h-151z" />
    <glyph glyph-name="uni0E48.alt2" unicode="&#xf70a;" 
d="M-79 743q13 0 13 -13v-130q0 -13 -13 -13h-52q-13 0 -13 13v130q0 13 13 13h52z" />
    <glyph glyph-name="uni0E49.alt2" unicode="&#xf70b;" 
d="M-40 651q13 0 11 -13l-8 -46q-3 -12 -15 -12h-204q-13 0 -13 12v45q0 13 -13 13h-39q-5 0 -8.5 3.5t-1.5 8.5l13 47q2 5 6.5 8.5t9.5 3.5h81q13 0 13 -13v-44q0 -13 13 -13h155z" />
    <glyph glyph-name="uni0E4A.alt2" unicode="&#xf70c;" 
d="M-55 721q11 2 11 -9v-10q0 -16 -4 -32q-3 -14 -10 -28t-20 -25q-14 -10 -27 -15t-24 -7.5t-19 -2.5h-10q-11 2 -12 11v8q0 11 -5.5 25t-28.5 18q-7 2 -15 -4.5t-15 -14.5q-2 -3 -6.5 -3t-7.5 3l-15 14.5t-15 4.5q-16 -3 -20 -12t-5 -19v-21q0 -10 -11 -10h-32
q-11 0 -11 11l-1 15q0 34 22 55q21 22 58 25q10 1 16 -7t14 -20q7 -7 13 0l16 19.5t15 7.5q46 -3 68 -25q6 -5 11 -14t7 -17q2 -9 7 -2q2 6 4 14t2 18q0 7 -0.5 12.5t-0.5 9.5q-1 4 -1 7q-1 4 1 7.5t7 3.5q16 3 24.5 5t13.5 3l6 1v0z" />
    <glyph glyph-name="uni0E4B.alt2" unicode="&#xf70d;" 
d="M-11 668q0 -13 -13 -13h-32q-13 0 -13 -13v-30q0 -13 -13 -13h-47q-13 0 -13 13v30q0 13 -13 13h-32q-13 0 -13 13v25q0 13 13 13h32q13 0 13 13v28q0 13 13 13h47q13 0 13 -13v-28q0 -13 13 -13h32q13 0 13 -13v-25z" />
    <glyph glyph-name="uni0E4C.alt2" unicode="&#xf70e;" 
d="M-186 619q-9 0 -9 -9v-17q0 -13 -13 -11l-35 7q-13 2 -13 15v74q0 13 13 13h189q5 0 8.5 -3.5t1.5 -8.5l-9 -47q-2 -13 -15 -13h-118z" />
    <glyph glyph-name="uni0E0D.alt1" unicode="&#xf70f;" horiz-adv-x="811" 
d="M775 165q0 -29 -7.5 -59.5t-29.5 -55.5t-61 -41t-103 -16q-28 0 -58.5 7t-56.5 15q-31 10 -60 23q-11 6 -11 19v266q0 35 -14 56.5t-35 33t-44.5 15.5t-41.5 4q-48 0 -80.5 -9.5t-41.5 -14.5q-5 -3 -6.5 -7.5t-1.5 -8.5v-301q0 -13 13 -13h35q13 0 11 -13l-8 -52
q-2 -13 -15 -13h-101q-13 0 -13 13v433q0 13 12 18q39 20 85.5 32t95.5 14q64 0 108 -16t71 -41t38.5 -55.5t11.5 -59.5v-226q0 -10 1 -12.5t3 -4.5q8 -6 39 -15t80 -9q18 0 37 4t35 15.5t26 33t10 56.5v309q0 13 13 13h52q12 0 12 -13v-324v0z" />
    <glyph glyph-name="uni0E31.alt1" unicode="&#xf710;" 
d="M38 672q13 0 11 -12l-8 -42q-3 -12 -15 -12h-277q-5 0 -9 3.5t-4 8.5v68q0 5 4 9t9 5l35 5q5 2 9 -1t4 -8v-12q0 -12 13 -12h228z" />
    <glyph glyph-name="uni0E47.alt1" unicode="&#xf712;" 
d="M-183 754q9 0 9 -9v-1l-7 -39v-2q-3 -7 -12 -9h-196q-19 0 -25 -8.5t-6 -19.5q0 -12 5 -22t25 -10h29q17 0 28 5.5t17 12.5q4 4 9 8t14 2q5 -2 20.5 -5.5l32.5 -7.5q20 -4 45 -10q5 -2 8.5 -6.5t3.5 -9.5v-36q0 -12 -12 -9l-44 12q-10 2 -19 5q-8 2 -15 4t-12 4
q-9 3 -14 -0.5l-12 -8.5q-8 -7 -22.5 -13.5t-36.5 -6.5h-28q-15 0 -30.5 5t-28 16t-21 28t-8.5 40q0 37 26.5 64t85.5 27h94h97v0z" />
    <glyph glyph-name="uni0E48.alt3" unicode="&#xf713;" 
d="M-169 909q13 0 13 -13v-110q0 -13 -13 -13h-52q-13 0 -13 13v110q0 13 13 13h52z" />
    <glyph glyph-name="uni0E49.alt3" unicode="&#xf714;" 
d="M-37 844q13 0 11 -13l-8 -47q-3 -12 -15 -12h-204q-13 0 -13 12v45q0 13 -13 13h-39q-5 0 -8.5 3.5t-1.5 8.5l13 47q2 5 6.5 8.5t9.5 3.5h81q13 0 13 -13v-43q0 -13 13 -13h155z" />
    <glyph glyph-name="uni0E4A.alt3" unicode="&#xf715;" 
d="M-142 905q11 2 11 -9v-10q0 -16 -4 -32q-3 -14 -10 -28t-20 -25q-14 -10 -27 -15t-24 -7.5t-19 -2.5h-10q-11 2 -12 11v8q0 11 -5.5 25t-28.5 18q-7 2 -15 -4.5t-15 -14.5q-2 -3 -6.5 -3t-7.5 3l-15 14.5t-15 4.5q-16 -3 -20 -12t-5 -19v-21q0 -10 -11 -10h-32
q-11 0 -11 11l-1 15q0 34 22 55q21 22 58 25q10 1 16 -7t14 -20q7 -7 13 0l16 19.5t15 7.5q46 -3 68 -25q6 -5 11 -14t7 -17q2 -9 7 -2q2 6 4 14t2 18q0 7 -0.5 12.5t-0.5 9.5q-1 4 -1 7q-1 4 1 7.5t7 3.5q16 3 24.5 5t13.5 3l6 1v0z" />
    <glyph glyph-name="uni0E4B.alt3" unicode="&#xf716;" 
d="M-131 845q0 -13 -13 -13h-32q-13 0 -13 -13v-30q0 -13 -13 -13h-47q-13 0 -13 13v30q0 13 -13 13h-32q-13 0 -13 13v25q0 13 13 13h32q13 0 13 13v28q0 13 13 13h47q13 0 13 -13v-28q0 -13 13 -13h32q13 0 13 -13v-25z" />
    <glyph glyph-name="uni0E4C.alt3" unicode="&#xf717;" 
d="M-199 792q-9 0 -9 -9v-17q0 -13 -13 -11l-35 7q-13 2 -13 15v74q0 13 13 13h222q5 0 8.5 -3.5t1.5 -8.5l-9 -47q-2 -13 -15 -13h-151z" />
    <glyph glyph-name="uni0E38.alt1" unicode="&#xf718;" 
d="M-103 -266q13 0 13 -12v-159q0 -13 -13 -13h-51q-13 0 -13 13v94q0 13 -13 13h-38q-12 0 -10 12l7 40q2 12 15 12h103z" />
    <glyph glyph-name="uni0E39.alt1" unicode="&#xf719;" 
d="M-103 -267q13 0 13 -13v-76q0 -49 -29 -77.5t-88 -28.5q-26 0 -48 8q-32 11 -47 35t-16 58v17q0 12 -13 12h-40q-13 0 -11 13l7 39q2 13 15 13h92q13 0 13 -13v-86q2 -18 14 -30t34 -12q50 0 50 52v76q0 13 13 13h41v0z" />
    <glyph glyph-name="uni0E3A.alt1" unicode="&#xf71a;" 
d="M-52 -331q0 -27 -20 -46.5t-48 -19.5t-48.5 19.5t-20.5 46.5t20.5 47t48.5 20t48 -20t20 -47z" />
    <glyph glyph-name="uni0E2C.alt1" unicode="&#xf71d;" horiz-adv-x="661" 
d="M570 527q8 2 11 -1.5t3 -16.5q-1 -7 -0.5 -11.5t0.5 -7.5v-7q0 -64 -51 -104q-2 -2 -4.5 -4t1.5 -6q19 -19 31 -43t8 -48q0 -1 -1.5 -13l-4 -31t-6 -43t-6.5 -48q-8 -58 -17 -130q-2 -13 -14 -13h-43q-12 0 -19 11l-122 231q-5 10 -12 0l-121 -231q-7 -11 -19 -11h-43
q-13 0 -15 13l-64 478q-2 13 11 13h53q12 0 14 -13l48 -333l1 -25q0 -5 1 -5t2 5l7 25l59 113l52 103q2 5 8 8t11 3h3q13 0 19 -11l111 -216l7 -25q1 -5 2 -5t1 5v25l10 64q4 24 6.5 45t3.5 23q2 17 -8.5 30.5t-28.5 23.5l-3.5 2t-7.5 5.5t-7 8.5t-2 11q1 5 1 8.5t1 5.5
q1 6 4.5 7.5t6.5 3.5l10.5 4t7.5 4q39 22 39 56v11v31q0 13 9 15l14.5 2.5l16.5 3t15 3t10 1.5z" />
    <glyph glyph-name="nonbreakingspace" unicode="&#xa0;" horiz-adv-x="249" 
 />
    <glyph glyph-name="dollar" unicode="$" horiz-adv-x="490" 
d="M262 -98h-43h43zM445 160q0 -37 -11.5 -64.5t-31.5 -47t-47 -31.5t-58 -17v-57q0 -14 -2.5 -18t-13.5 -4h-57q-12 0 -17 5t-5 21v46q-62 2 -98.5 12t-50.5 20q-3 2 -3 15t2.5 27t6.5 25t9 10l20 -7.5t29.5 -9.5t40.5 -8.5t53 -3.5q27 0 51 4t42 13.5t28.5 25.5t10.5 39
q0 19 -5.5 34t-19 28t-35 25t-53.5 25t-61 28t-51.5 35.5t-36 48.5t-13.5 67q0 52 36 94t116 53v59q0 13 5 18t20 5h57q11 0 12.5 -5.5t1.5 -19.5v-53q24 -1 40.5 -3t27.5 -4.5t18 -5t12 -4.5q6 -2 6.5 -14t-3 -25.5t-9.5 -24t-12 -9.5q-15 5 -47 11.5t-66 6.5
q-65 0 -90 -21.5t-25 -57.5q0 -35 26.5 -56t84.5 -44q81 -32 123.5 -76t42.5 -110z" />
    <glyph glyph-name="numbersign" unicode="#" horiz-adv-x="460" 
d="M454 371q-2 -11 -8 -14.5t-21 -3.5h-56l-25 -110h59q14 0 17.5 -3t1.5 -13l-3 -19q-3 -13 -9 -18t-21 -5h-56l-36 -161q-4 -16 -8 -20t-16 -4h-38q-11 0 -13 6t2 21l36 158h-106l-37 -162q-3 -15 -7 -19t-13 -4h-36q-12 0 -16 5t0 21l36 159h-61q-14 0 -18 3.5t0 18.5
l3 21q2 11 8 13t20 2h58l26 110h-62q-11 0 -15.5 3.5t-2.5 17.5l5 21q2 12 7 14t20 2h58l34 152q3 13 7.5 18t20.5 5h36q11 0 11.5 -5t-1.5 -19l-34 -151h105l35 153q2 12 6 17t18 5h33q14 0 16.5 -5t-0.5 -19l-33 -151h56q16 0 19.5 -3.5t1.5 -14.5zM190 353l-25 -110h105
l26 110h-106z" />
    <glyph glyph-name="uni0E5B" unicode="&#xe5b;" horiz-adv-x="830" 
 />
    <glyph glyph-name="uni0E0E.alt1" unicode="&#xf71b;" horiz-adv-x="529" 
d="M247 510q64 0 108 -16t71 -41t38.5 -55.5t11.5 -59.5v-431q0 -26 -11 -46t-25 -34q-16 -16 -35 -28q-5 -3 -10.5 -2.5t-9.5 2.5q-22 10 -44.5 19t-62.5 15l-29.5 2.5t-38 -1t-42 -11t-41.5 -25.5q-5 -4 -9 -2l-4 2q-4 5 -8 9l-6.5 8.5t-5.5 7.5q-7 9 -1 16q14 15 32 29.5
t41.5 25t53 15.5t67.5 0q28 -4 53 -11t42 -14q7 -3 11 6t4 29v404q0 35 -14 56.5t-35 33t-44.5 15.5t-41.5 4q-48 0 -80.5 -9.5t-41.5 -14.5q-5 -3 -6.5 -7.5t-1.5 -8.5v-380q0 -12 -13 -12h-100q-13 0 -15 12l-8 53q-2 12 11 12h34q13 0 13 13v356q0 13 12 18
q39 20 85.5 32t95.5 14z" />
    <glyph glyph-name="uni0E0F.alt1" unicode="&#xf71c;" horiz-adv-x="529" 
d="M246 510q64 0 108 -16t71 -41t38.5 -55.5t11.5 -59.5v-431q0 -26 -11 -46t-25 -34q-16 -16 -35 -28q-5 -2 -11.5 -1.5t-11.5 2.5q-2 0 -11 5q-8 4 -24 13l-44 26q-2 2 -5 3t-8 -2q-41 -28 -78 -39t-86 -11h-15q-13 0 -11 13l6 35q2 5 10 4.5t16 0.5q25 2 50 10t48 23
q26 19 45 43q5 8 10 8t9 -2l38 -21l28 -15.5t17 -9.5q8 -4 14 2.5t6 32.5v404q0 35 -14 56.5t-35 33t-44.5 15.5t-41.5 4q-48 0 -80.5 -9.5t-41.5 -14.5q-5 -3 -6.5 -7.5t-1.5 -8.5v-380q0 -12 -13 -12h-100q-13 0 -15 12l-8 53q-2 12 11 12h34q13 0 13 13v356q0 13 12 18
q39 20 85.5 32t95.5 14z" />
    <glyph glyph-name="notequal" unicode="&#x2260;" horiz-adv-x="537" 
d="M201 151l-103 -111l-46 40l67 71h-67v66h126l99 103h-225v67h284l104 111l45 -41l-67 -70h67v-67h-126l-98 -103h224v-66h-284z" />
    <glyph glyph-name="infinity" unicode="&#x221e;" horiz-adv-x="808" 
d="M740 267q0 -34 -11 -63t-32 -50.5t-50 -33.5t-65 -12q-26 0 -49 6t-44 19t-42 32.5t-43 46.5q-44 -54 -85 -79.5t-92 -25.5q-36 0 -65.5 12.5t-50.5 34t-32.5 50.5t-11.5 63t11.5 63t32.5 50.5t50.5 34t65.5 12.5q50 0 91 -26t86 -80q45 54 85 80t93 26q36 0 65 -12.5
t50 -34t32 -50.5t11 -63zM671 266q0 42 -25.5 67.5t-66.5 25.5q-37 0 -66 -25.5t-64 -67.5q35 -42 64 -67.5t66 -25.5q41 0 66.5 25.5t25.5 67.5zM358 266q-35 42 -63.5 68t-65.5 26q-41 0 -67 -26t-26 -68t26 -67.5t67 -25.5q37 0 65.5 25.5t63.5 67.5z" />
    <glyph glyph-name="lessequal" unicode="&#x2264;" horiz-adv-x="584" 
d="M528 82v-82h-472v82h472zM80 313v82l408 202v-87l-310 -156l310 -156v-87z" />
    <glyph glyph-name="greaterequal" unicode="&#x2265;" horiz-adv-x="584" 
d="M528 82v-82h-472v82h472zM80 111v87l310 156l-310 156v87l408 -202v-82z" />
    <glyph glyph-name="partialdiff" unicode="&#x2202;" horiz-adv-x="496" 
d="M456 241q0 -119 -50.5 -184.5t-151.5 -65.5q-106 0 -160 67t-54 183q0 110 53 171.5t154 61.5q18 0 37 -4t36 -11t31 -16.5t22 -21.5v69q0 68 -27.5 103.5t-99.5 35.5q-25 0 -44.5 -1.5t-36.5 -3.5t-32.5 -5.5l-32.5 -7.5v70q38 15 73.5 20.5t74.5 5.5q101 0 154.5 -58.5
t53.5 -164.5v-243zM374 241q0 30 -7 57.5t-22 49t-37.5 34t-53.5 12.5q-63 0 -93 -39t-30 -114q0 -77 28.5 -123.5t94.5 -46.5q36 0 59 12.5t36.5 35t19 54t5.5 68.5z" />
    <glyph glyph-name="summation" unicode="&#x2211;" horiz-adv-x="543" 
d="M50 -130v65l202 391l-201 370v64h441v-90h-329l186 -329v-35l-186 -352h330v-84h-443z" />
    <glyph glyph-name="product" unicode="&#x220f;" horiz-adv-x="696" 
d="M503 -220v894h-311v-894h-89v980h490v-980h-90z" />
    <glyph glyph-name="pi" unicode="&#x3c0;" horiz-adv-x="591" 
d="M409 0v416h-225v-416h-83v492h389v-492h-81z" />
    <glyph glyph-name="integral" unicode="&#x222b;" horiz-adv-x="339" 
d="M214 -52q0 -65 -36 -100.5t-106 -35.5q-32 0 -72 9v61h71q28 0 41 12t13 39v582q0 65 36 100.5t106 35.5q31 0 72 -9v-61h-71q-28 0 -41 -12t-13 -39v-582z" />
    <glyph glyph-name="Omega" unicode="&#x3a9;" horiz-adv-x="650" 
d="M325 604q-42 0 -72.5 -11t-49.5 -40.5t-28 -82t-9 -134.5q0 -68 3.5 -110t14.5 -70.5t31.5 -48.5t55.5 -43v-64h-195v67h83q-22 18 -38 45.5t-26 62.5t-14.5 76.5t-4.5 86.5q0 89 13.5 155t43 109.5t77 65t115.5 21.5t115.5 -21.5t77 -65t43 -109.5t13.5 -155
q0 -45 -4.5 -86.5t-14.5 -76.5t-26 -62.5t-38 -45.5h83v-67h-195v64q35 23 55.5 43t31.5 48.5t14.5 70.5t3.5 110q0 82 -9 134.5t-28 82t-49.5 40.5t-72.5 11z" />
    <glyph glyph-name="radical" unicode="&#x221a;" horiz-adv-x="562" 
d="M443 644l-211 -644h-61l-163 492h79l115 -356l184 576h146v-68h-89z" />
    <glyph glyph-name="approxequal" unicode="&#x2248;" horiz-adv-x="539" 
d="M490 366q-21 -21 -37.5 -34.5t-31 -21t-29 -10t-31.5 -2.5q-26 0 -51.5 9.5t-54.5 22.5q-21 10 -39.5 16.5t-38.5 6.5q-11 0 -19.5 -1.5t-18 -6t-20.5 -13t-26 -23.5l-44 44q21 21 37.5 34.5t31 21t29 10.5t31.5 3q22 0 49 -9.5t56 -22.5q21 -10 39.5 -16.5t38.5 -6.5
q10 0 19 1.5t18.5 6t20.5 13t26 23.5zM490 189q-21 -21 -37.5 -34.5t-31 -21t-29 -10t-31.5 -2.5q-26 0 -51.5 9.5t-54.5 22.5q-21 10 -39.5 16.5t-38.5 6.5q-11 0 -19.5 -1.5t-18 -6t-20.5 -13t-26 -23.5l-44 44q21 21 37.5 34.5t31 21t29 10.5t31.5 3q22 0 49 -9.5
t56 -22.5q21 -10 39.5 -16.5t38.5 -6.5q10 0 19 1.5t18.5 6t20.5 13t26 23.5z" />
    <glyph glyph-name="Delta" unicode="&#x2206;" horiz-adv-x="603" 
d="M8 0l262 712h63l261 -712h-586zM302 603l-194 -537h387z" />
    <glyph glyph-name="lozenge" unicode="&#x25ca;" horiz-adv-x="649" 
d="M325 -12l-258 364l258 364l257 -364zM325 605l-177 -253l177 -255l176 255z" />
    <glyph glyph-name="apple" unicode="&#xf8ff;" horiz-adv-x="830" 
 />
    <glyph glyph-name="uni0E14" unicode="&#xe14;" horiz-adv-x="544" 
d="M272 514q44 0 84.5 -12.5t71 -35t49 -54.5t18.5 -70v-329q0 -13 -13 -13h-53q-12 0 -12 13v314q0 27 -11.5 49t-31 38t-46 24.5t-56.5 8.5q-41 0 -80 -12t-59 -35q-3 -3 -6 -8.5t-3 -17.5v-251q0 -11 2.5 -22t11.5 -20q3 -3 9 -6t18 -3h22q5 0 11 1q13 0 13 -13l1 -49
q0 -13 -13 -15l-12 -2q-5 -1 -11 -1h-11q-50 0 -84 34q-14 14 -20.5 28.5t-10.5 27.5q-4 15 -5 29v275q0 8 2.5 15t4.5 11q13 26 36.5 45t53 31.5t63 18.5t67.5 6z" />
    <glyph glyph-name="uni0E15" unicode="&#xe15;" horiz-adv-x="550" 
d="M464 463q38 -40 38 -104v-346q0 -13 -13 -13h-51q-13 0 -13 13v346q-1 11 -4.5 22.5t-11.5 21.5t-22.5 17t-36.5 10q-3 1 -9 0.5t-14 -7.5l-42 -36q-4 -4 -9.5 -4t-9.5 4q-2 2 -7.5 7l-11.5 10.5l-11.5 10.5t-8.5 8q-8 7 -14 7.5t-9 -0.5q-22 -3 -36 -10t-22.5 -17
t-11.5 -21.5t-3 -22.5v-236q0 -11 2.5 -22t11.5 -20q3 -3 9 -6t18 -3h22q5 0 11 1q11 0 13 -13v-49q1 -5 -3 -9.5t-9 -5.5l-12 -2q-5 -1 -11 -1h-11q-52 0 -84 34q-14 14 -20.5 28.5t-10.5 27.5q-4 15 -5 29v247q0 64 38 104q21 22 53.5 33.5t72.5 13.5q4 0 9 -1t13 -9
l13 -14.5t17 -17.5q8 -9 17 0l12 12l10 10.5t9 10.5q7 8 12.5 8.5t9.5 0.5q40 -2 72.5 -13.5t53.5 -33.5z" />
    <glyph glyph-name="uni0E12" unicode="&#xe12;" horiz-adv-x="838" 
d="M785 503q13 0 13 -13v-302q0 -29 -2 -49.5t-5.5 -36t-9.5 -27t-13 -22.5q-12 -18 -39.5 -36.5t-69.5 -20.5q-32 0 -58.5 10.5t-47 25.5t-35 32t-22.5 30q-5 3 -5 -6v-75q0 -13 -13 -13h-51q-13 0 -13 12v348q-1 11 -4.5 22.5t-11.5 21.5t-22.5 17t-36.5 10q-3 1 -9 0.5
t-14 -7.5q-4 -3 -10.5 -9l-13.5 -12l-12 -10.5l-5 -4.5q-10 -9 -19 0l-5 4t-11.5 10l-13 12l-10.5 10q-8 7 -14 7.5t-9 -0.5q-22 -3 -36 -10t-22.5 -17t-11.5 -21.5t-3 -22.5v-236q0 -11 2.5 -22t11.5 -20q3 -3 9 -6t18 -3h22q5 0 11 1q13 0 13 -13l1 -49q0 -13 -13 -15
l-12 -2q-5 -1 -11 -1h-11q-51 0 -83 34q-14 14 -21.5 28.5t-10.5 27.5q-4 15 -4 29l-0.5 10.5t-0.5 28v40v45.5v123q0 63 39 104q20 22 53 33.5t73 13.5q3 0 9.5 -1t12.5 -8l3.5 -3.5t3.5 -4l7 -8.5t15 -17q9 -9 18 0l30 33q8 8 13.5 8.5t8.5 0.5q40 -2 73 -13.5t53 -33.5
q38 -40 38 -104v-105q0 -35 11.5 -67t33 -57.5t52 -40.5t67.5 -15q13 0 27.5 4t22.5 18q16 24 16 67v326q0 13 12 13h52v0z" />
    <glyph glyph-name="uni0E0C" unicode="&#xe0c;" horiz-adv-x="808" 
d="M756 503q12 0 12 -13v-307q0 -57 -7.5 -85t-21.5 -49q-12 -18 -39.5 -37t-70.5 -20q-32 0 -58.5 10.5t-47 25.5t-35 31.5t-22.5 29.5q-4 4 -4 -5v-71q0 -13 -13 -13h-53q-13 0 -13 13v310q0 35 -14 56.5t-35 33t-44.5 15.5t-41.5 4q-49 0 -81 -9.5t-41 -14.5
q-5 -2 -6.5 -7t-1.5 -9v-301q0 -13 13 -13h35q12 0 10 -13l-7 -52q-2 -13 -15 -13h-101q-13 0 -13 13v433q0 5 3.5 10.5t8.5 7.5q38 20 85 33t96 13q64 0 108 -16t71 -41t38.5 -55.5t11.5 -59.5v-87q0 -36 11.5 -69t33 -57.5t51.5 -39.5t67 -15q14 0 27.5 4.5t23.5 17.5
q15 22 15 68v330q0 13 13 13h52v0z" />
    <glyph glyph-name="uni0E08" unicode="&#xe08;" horiz-adv-x="441" 
d="M379 446q50 -62 50 -187q0 -126 -49 -191q-51 -68 -149 -68h-1h-32q-5 0 -10 3.5t-7 8.5v1l-32 101l-33 103q-2 5 -7 8.5t-10 3.5h-24q-13 0 -11 12l6 38q2 13 15 13h65q5 0 10 -3.5t7 -9.5q6 -15 15.5 -43l20 -58l20 -57.5t14.5 -43.5q1 -3 3 -6.5t7 -2.5q15 2 30.5 8
t28.5 19t23 34t16 53q6 31 6 77q0 20 -1.5 37.5t-3.5 31.5q-6 37 -21.5 59.5t-36.5 35t-44 16.5t-44 4q-25 0 -49.5 -3.5t-46.5 -8t-39.5 -10.5t-27.5 -10q-5 -2 -9 1t-6 6l-20 30q-5 8 4 16q11 9 37 17t55 14t57 9.5t44 3.5q22 0 47 -2.5t49 -9t46 -19t38 -31.5z" />
    <glyph glyph-name="uni0E10.alt1" unicode="&#xf700;" horiz-adv-x="456" 
d="M329 296q54 -14 75 -46t21 -73v-57q-1 -19 -5 -39t-20 -37t-48 -29t-89 -15h-10.5h-16h-15h-8.5q-11 0 -17 3t-10 8q-4 4 -6 11l-36 112q-4 13 -17 13h-25q-12 0 -10 12q2 15 3.5 23.5t2 12.5t1 5l0.5 1q1 5 5 7t9 2h65q5 0 10 -3.5t7 -8.5l9.5 -28l9 -26l9.5 -28t12 -34
q1 -2 4 -5t11 -3q54 -1 80 13.5t26 34.5v57q0 19 -8.5 29.5t-25.5 15.5q-2 1 -28.5 6.5l-59 12l-61.5 12t-37 7.5q-18 3 -38 10.5t-36.5 21.5t-27.5 35.5t-11 53.5q0 38 17 63.5t44.5 40.5t62.5 21.5t70 6.5h5q24 -1 52 -5.5t51 -9.5q27 -6 55 -15q13 -5 9 -16l-9 -44
q-1 -5 -5 -7.5t-9 -0.5q-22 8 -47 14q-22 5 -49.5 9.5t-57.5 4.5q-38 0 -60 -7t-33 -16.5t-14 -20t-3 -16.5q0 -30 19 -41t46 -16l30 -6l53.5 -10.5l52 -10t26.5 -5.5z" />
    <glyph glyph-name="uni0E09" unicode="&#xe09;" horiz-adv-x="512" 
d="M444 254v-241q0 -13 -12 -13h-56q-13 0 -13 13v71q0 11 -5 4q-9 -13 -23 -29t-34 -31t-47 -25.5t-62 -11.5q-49 2 -75 19t-40 35q-32 43 -32 116v55q0 5 -2 9t-11 4h-16q-13 0 -11 12l6 38q2 13 15 13h84q13 0 13 -13v-118q0 -37 8 -53t9 -17q3 -4 14.5 -13t41.5 -9
q40 0 71.5 16.5t53 43t33 59.5t12.5 65v13t-1 14q0 8 -1 16q-1 7 -1.5 14.5t-1.5 13.5q-6 38 -22 61t-38 35.5t-45.5 16.5t-44.5 4q-25 0 -49 -3.5t-45 -8t-37.5 -10.5t-26.5 -10q-10 -2 -15 7l-21 30q-5 10 3 16q10 5 29.5 12.5t45.5 15t57.5 13t66.5 5.5q24 0 50 -4
t49.5 -12t43.5 -20t33 -28q46 -59 49 -176v-1v-13z" />
    <glyph glyph-name="uni0E4D.alt1" unicode="&#xf711;" 
d="M-193 640q0 -20 -7.5 -37t-20 -29.5t-30 -20t-36.5 -7.5q-20 0 -37 7.5t-29.5 20t-20 29.5t-7.5 37q0 19 7.5 36t20 30t29.5 20.5t37 7.5q19 0 36.5 -7.5t30 -20.5t20 -30t7.5 -36zM-249 640q0 15 -11 26t-27 11t-27 -11t-11 -26q0 -16 11 -27t27 -11t27 11t11 27z" />
    <glyph glyph-name="uni0E4D" unicode="&#xe4d;" 
d="M-23 642q0 -20 -7.5 -37t-20 -29.5t-30 -20t-36.5 -7.5q-20 0 -37 7.5t-29.5 20t-20 29.5t-7.5 37q0 19 7.5 36t20 30t29.5 20.5t37 7.5q19 0 36.5 -7.5t30 -20.5t20 -30t7.5 -36zM-79 642q0 15 -11 26t-27 11t-27 -11t-11 -26q0 -16 11 -27t27 -11t27 11t11 27z" />
    <glyph glyph-name="uni0E2B" unicode="&#xe2b;" horiz-adv-x="525" 
d="M473 11q5 -11 -8 -11h-59q-13 0 -18 11l-65 139l-62 133q-2 4 -4.5 7.5t-9.5 1.5q-22 -6 -45 -9.5t-47 -5.5q-5 0 -8 -4.5t-3 -9.5v-251q0 -12 -12 -12h-53q-13 0 -13 12v478q0 13 13 13h53q12 0 12 -13v-136q0 -13 13 -11q22 1 45 5q20 4 42.5 12t44.5 23q32 23 52.5 51
t26.5 63q1 5 5 5.5t9 0.5h54q9 0 10 -4.5t1 -7.5q-3 -20 -9 -38q-29 -72 -100 -118q-5 -4 -7 -7.5t1 -11.5l141 -305v0z" />
    <glyph glyph-name="Oslash" unicode="&#xd8;" horiz-adv-x="683" 
d="M577 557q13 0 12 -6.5t-15 -23.5l-46 -59q46 -69 46 -199q0 -136 -63 -207t-175 -71q-45 0 -82.5 8t-66.5 26q-11 -15 -18 -19t-18 -4h-44q-16 0 -18 6t14 26l32 41q-22 32 -33 79.5t-11 113.5q0 78 18 132.5t50.5 88.5t78.5 49.5t103 15.5q83 0 136 -34l7 9
q12 17 20 22.5t27 5.5h46zM421 447q-30 30 -84 30q-55 0 -91 -38t-36 -120v-98q0 -23 3 -44zM460 324q0 14 -1 26t-3 24l-104 -135l-38.5 -50l-33.5 -43l-33 -42q17 -19 40.5 -27.5t50.5 -8.5q57 0 89.5 45t32.5 120v91z" />
    <glyph glyph-name="eacute" unicode="&#xe9;" horiz-adv-x="459" 
d="M415 235q0 -19 -5.5 -27.5t-28.5 -8.5h-245q0 -72 33 -103.5t92 -31.5q51 0 80.5 7.5t40.5 11.5q12 5 18 2t6 -10v-41q0 -11 -5.5 -15.5t-22.5 -9.5q-4 -2 -16.5 -4t-30 -4.5t-37 -4t-38.5 -1.5q-106 0 -160 52t-54 175q0 119 48.5 178.5t142.5 59.5q87 0 134.5 -45.5
t47.5 -129.5v-50zM325 277q-2 60 -22 91.5t-72 31.5q-25 0 -42 -10t-28 -26.5t-16.5 -38.5t-5.5 -47q0 -9 1 -12.5t10 -3.5h166q6 0 7.5 3t1.5 12zM242 512q-12 -15 -26 -15h-32q-19 0 -5 21l76 105q6 9 10 13.5t15 4.5h57q18 0 18.5 -6t-10.5 -17z" />
    <glyph glyph-name="egrave" unicode="&#xe8;" horiz-adv-x="459" 
d="M413 234q0 -18 -5.5 -26.5t-28.5 -8.5h-245q0 -72 33 -103.5t91 -31.5q51 0 81.5 7t41.5 11q23 9 23 -7v-41q0 -11 -5.5 -15.5t-21.5 -9.5q-4 -2 -17 -4.5t-30.5 -4.5t-37.5 -3.5t-38 -1.5q-106 0 -160 52t-54 174q0 121 48.5 180t142.5 59q87 0 134.5 -45t47.5 -130v-51
zM322 276q-1 61 -21.5 92.5t-71.5 31.5q-25 0 -42.5 -9.5t-28.5 -26.5t-16.5 -39.5t-5.5 -47.5q0 -8 1 -12t10 -4h166q6 0 7.5 3.5t1.5 11.5zM296 518q15 -21 -5 -21h-32q-8 0 -14.5 4.5t-11.5 9.5l-102 107q-11 11 -11 17t17 6h58q10 0 14.5 -4.5t10.5 -12.5z" />
    <glyph glyph-name="ecircumflex" unicode="&#xea;" horiz-adv-x="459" 
d="M416 235q0 -18 -5.5 -27t-28.5 -9h-246q0 -72 33.5 -103.5t91.5 -31.5q51 0 81.5 7t41.5 11q23 9 23 -7v-41q0 -11 -5.5 -15.5t-22.5 -9.5q-4 -2 -17 -4l-30 -4.5t-37 -4t-38 -1.5q-107 0 -161 52t-54 175q0 120 48.5 179.5t143.5 59.5q86 0 134 -46t48 -129v-51z
M325 277q-2 60 -22 92t-71 32q-25 0 -42.5 -10t-29 -26.5t-16.5 -39t-5 -47.5q0 -9 1 -12.5t9 -3.5h167q6 0 7.5 3.5t1.5 11.5zM353 519q8 -10 7 -16t-12 -6h-30q-7 0 -11.5 1t-9.5 9l-59 79l-59 -79q-6 -8 -10.5 -9t-10.5 -1h-32q-11 0 -11.5 6t7.5 16l76 106q5 7 9 12
t13 5h34q11 0 15 -5l10 -12z" />
    <glyph glyph-name="Aring" unicode="&#xc5;" horiz-adv-x="595" 
d="M558 33q7 -23 0 -27t-20 -4h-73q-14 0 -16 5t-7 19l-40 130h-232l-39 -130q-5 -14 -8.5 -19t-14.5 -5h-67q-8 0 -10.5 5t3.5 26l189 620q5 17 11.5 23.5t22.5 6.5h78q16 0 22.5 -6.5t11.5 -23.5zM287 550l-92 -310h182zM409 829q0 -22 -9 -41.5t-24 -34.5t-35.5 -23.5
t-43.5 -8.5t-43 8.5t-35 23.5t-24 34.5t-9 41.5t9 42t24 34.5t35 23t43 8.5t43.5 -8.5t35.5 -23t24 -34.5t9 -42zM355 829q0 23 -16 42t-42 19q-24 0 -40.5 -19t-16.5 -42t16 -41.5t41 -18.5t41.5 18.5t16.5 41.5z" />
    <glyph glyph-name="Ccedilla" unicode="&#xc7;" horiz-adv-x="588" 
d="M518 650q3 -3 0 -15.5t-8.5 -26.5t-12 -24.5t-9.5 -9.5q-17 8 -44.5 18t-78.5 10q-94 0 -133.5 -39t-39.5 -118v-240q0 -38 13.5 -63.5t35 -40.5t48.5 -21.5t55 -6.5q31 0 55 4t42 9.5t30.5 11t21.5 8.5q4 1 9 -10.5t8.5 -27t4.5 -29t-2 -16.5q-17 -11 -60 -21.5
t-100 -12.5v-26q34 0 56 -18.5t22 -54.5q0 -39 -31 -58.5t-77 -19.5q-30 0 -47 7t-33 25q-4 4 -1 11t8.5 12.5t11.5 8.5t8 0q6 -8 19 -14t30 -6q23 0 38 8t15 26q0 21 -12.5 28.5t-34.5 7.5q-5 0 -8.5 -0.5t-7.5 -1.5q-5 -1 -7.5 -0.5t-2.5 5.5v60q-106 8 -163 62t-57 143
v260q0 49 12 91.5t43 74.5t84.5 50.5t137.5 18.5q40 0 68 -4.5t47.5 -11t30.5 -13t16 -10.5z" />
    <glyph glyph-name="Eacute" unicode="&#xc9;" horiz-adv-x="520" 
d="M469 17q0 -10 -6 -13.5t-14 -3.5h-354q-9 0 -15 6t-6 21v624q0 14 2.5 22.5t15.5 8.5h337q17 0 21 -2.5t4 -12.5v-55q0 -11 -11.5 -13t-31.5 -2h-207q-15 0 -19.5 -4.5t-4.5 -10.5v-161q0 -14 5 -17.5t16 -3.5h184q20 0 25 -4t3 -13l-6 -52q-2 -15 -16 -16.5t-28 -1.5
h-155q-26 0 -26 -21v-183q0 -16 7.5 -18t19.5 -2h226q18 0 26 -3.5t8 -14.5v-54zM290 741q-6 -8 -13.5 -12.5t-16.5 -4.5h-36q-22 0 -6 24l86 119q7 10 11.5 15t16.5 5h65q20 0 20.5 -6t-11.5 -20z" />
    <glyph glyph-name="Ntilde" unicode="&#xd1;" horiz-adv-x="661" 
d="M593 32q0 -19 -3.5 -27t-17.5 -7l-67 1q-13 0 -19.5 4.5t-14.5 18.5l-271 455q-11 19 -16 20.5t-5 -20.5v-445q0 -19 -3 -25.5t-17 -6.5h-61h-8.5t-8 2.5t-6 8.5t-2.5 17v625q0 1 0.5 6t2 10.5t5 9.5t9.5 4h65q23 0 27.5 -4.5t12.5 -15.5l273 -463q10 -17 14.5 -15
t4.5 29v439q0 11 3 21t12 9h72q12 0 15.5 -7.5t3.5 -23.5v-620zM508 838q-20 -42 -47 -68t-64 -26q-16 0 -32 8t-32 18t-30.5 18t-27.5 8q-15 0 -30 -11t-23 -25q-5 -10 -14 -5l-34 17q-9 4 -4 12q6 13 15.5 29t22.5 29t29.5 22t34.5 9q16 0 33 -8.5t33.5 -18l32 -18
t28.5 -8.5q20 0 33.5 12t21.5 26q3 10 13 6l37 -12q9 -4 4 -14z" />
    <glyph glyph-name="aacute" unicode="&#xe1;" horiz-adv-x="476" 
d="M422 33q0 -17 -3 -25t-17 -8h-53q-9 0 -14.5 4t-5.5 20v35q-6 -13 -19 -25.5t-30.5 -22t-39 -15t-45.5 -5.5q-30 0 -57.5 12.5t-47.5 40.5t-32 71.5t-12 105.5q0 111 38 174.5t110 63.5q53 0 85 -18.5t50 -50.5v37q0 21 15 21h54q17 0 20.5 -6t3.5 -19v-390zM323 290
q0 14 -5 32t-16 34.5t-28.5 28t-41.5 11.5q-43 0 -65.5 -32t-22.5 -106v-70q0 -62 22.5 -98t67.5 -36q21 0 37.5 9.5t28 23t17.5 28t6 23.5v152zM261 511q-6 -6 -12.5 -10.5t-14.5 -4.5h-31q-20 0 -5 22l76 106q6 9 10 13.5t15 4.5h58q17 0 17.5 -6t-10.5 -17z" />
    <glyph glyph-name="agrave" unicode="&#xe0;" horiz-adv-x="476" 
d="M424 33q0 -17 -3 -25t-17 -8h-53q-9 0 -14.5 4t-5.5 20v36q-6 -14 -19 -26t-30.5 -22t-39 -15.5t-45.5 -5.5q-31 0 -58 12.5t-47.5 40.5t-32.5 72t-12 106q0 111 38 174.5t110 63.5q54 0 86 -18t50 -50v36q0 21 15 21h54q17 0 20.5 -5.5t3.5 -19.5v-391zM325 291
q0 14 -5 32t-16 34.5t-28.5 28t-41.5 11.5q-43 0 -65.5 -32t-22.5 -106v-71q0 -62 22 -97.5t67 -35.5q21 0 37.5 9.5t28.5 23t18 27.5t6 23v153zM316 519q15 -21 -4 -21h-33q-14 0 -26 15l-103 108q-11 11 -10.5 17t17.5 6h58q11 0 15.5 -4.5t9.5 -13.5z" />
    <glyph glyph-name="acircumflex" unicode="&#xe2;" horiz-adv-x="476" 
d="M423 33q0 -17 -3.5 -25t-17.5 -8h-52q-10 0 -15 4t-5 20v35q-6 -13 -19 -25.5t-30.5 -22t-39 -15t-45.5 -5.5q-31 0 -58 12.5t-47.5 40.5t-32.5 71.5t-12 105.5q0 111 38 175t110 64q54 0 86 -18.5t50 -50.5v37q0 9 3.5 15t11.5 6h53q18 0 21.5 -6t3.5 -20v-390zM323 291
q0 13 -5 31.5t-16 35t-28.5 28t-42.5 11.5q-42 0 -64 -32t-22 -107v-70q0 -61 22 -97.5t66 -36.5q21 0 38 10t28.5 23.5t17.5 28t6 23.5v152zM368 519q16 -22 -5 -22h-31q-8 0 -12 1t-9 9l-60 78l-58 -78q-6 -8 -10.5 -9t-11.5 -1h-31q-21 0 -5 22l75 106q5 8 9.5 13t14.5 5
h33q11 0 15.5 -5t9.5 -13z" />
    <glyph glyph-name="atilde" unicode="&#xe3;" horiz-adv-x="476" 
d="M425 33q0 -17 -3 -25t-17 -8h-54q-9 0 -14.5 4t-5.5 20v36q-13 -27 -49.5 -48t-84.5 -21q-31 0 -58 12.5t-47.5 40.5t-32.5 71.5t-12 105.5q0 112 38 176.5t110 64.5q54 0 86 -19t50 -51v37q0 9 3.5 15t11.5 6h55q17 0 20.5 -6t3.5 -19v-392zM324 291q0 14 -5 32.5
t-16 35t-28.5 28t-42.5 11.5q-42 0 -64 -32.5t-22 -107.5v-70q0 -61 22 -97t66 -36q21 0 38 10t28.5 23.5t17.5 27.5t6 23v152zM398 599q-18 -36 -42.5 -59.5t-57.5 -23.5q-15 0 -29.5 7t-28 16t-26.5 16t-24 7q-14 0 -27.5 -10t-20.5 -22q-3 -6 -5.5 -6.5t-6.5 1.5l-31 16
q-7 3 -4 11q5 12 14 25.5t21 25.5t26 20t31 8q13 0 28 -7.5t30 -16.5t29 -16.5t25 -7.5q18 0 30 11t20 24q3 9 11 5l35 -11q8 -4 3 -13z" />
    <glyph glyph-name="aring" unicode="&#xe5;" horiz-adv-x="476" 
d="M425 33q0 -17 -3 -25t-17 -8h-54q-9 0 -14.5 4t-5.5 20v36q-13 -27 -49.5 -48t-84.5 -21q-31 0 -58 12.5t-47.5 40.5t-32.5 72t-12 106q0 112 38 176t110 64q54 0 86 -19t50 -51v37q0 21 15 21h55q17 0 20.5 -6t3.5 -19v-392zM324 291q0 14 -5 32.5t-16 35t-28.5 28
t-41.5 11.5q-42 0 -64.5 -32.5t-22.5 -107.5v-70q0 -61 22 -97t67 -36q21 0 37.5 10t28 23.5t17.5 27.5t6 22v153zM351 591q0 -20 -8 -37.5t-21.5 -30.5t-32 -20.5t-38.5 -7.5t-38 7.5t-31.5 20.5t-21.5 30.5t-8 37.5t8 38t21.5 31t31.5 20.5t38 7.5t38.5 -7.5t32 -20.5
t21.5 -31t8 -38zM303 591q0 20 -14.5 37t-37.5 17q-21 0 -35.5 -17t-14.5 -37t14 -37t36 -17t37 17t15 37z" />
    <glyph glyph-name="iacute" unicode="&#xed;" horiz-adv-x="218" 
d="M153 28q0 -16 -2.5 -22.5t-14.5 -6.5h-58q-11 0 -14.5 6.5t-3.5 22.5v397q0 13 3.5 19t16.5 6h53q15 0 17.5 -5.5t2.5 -19.5v-397zM140 516q-5 -7 -11.5 -11.5t-14.5 -4.5h-33q-20 0 -5 22l77 107q7 9 11 13.5t15 4.5h59q17 0 17.5 -6t-10.5 -17z" />
    <glyph glyph-name="igrave" unicode="&#xec;" horiz-adv-x="218" 
d="M156 29q0 -16 -2.5 -22.5t-14.5 -6.5h-58q-11 0 -14.5 6.5t-3.5 22.5v396q0 13 3.5 19t16.5 6h53q15 0 17.5 -5.5t2.5 -19.5v-396zM140 521q15 -21 -4 -21h-33q-14 0 -26 15l-104 108q-11 11 -11 17t17 6h59q11 0 15.5 -4.5t10.5 -13.5z" />
    <glyph glyph-name="icircumflex" unicode="&#xee;" horiz-adv-x="218" 
d="M155 29q0 -16 -2.5 -22.5t-14.5 -6.5h-59q-11 0 -14.5 6.5t-3.5 22.5v397q0 13 4 19t16 6h54q15 0 17.5 -5.5t2.5 -19.5v-397zM227 523q16 -22 -5 -22h-31q-8 0 -12 1t-10 9l-60 78l-59 -78q-7 -8 -11.5 -9t-10.5 -1h-32q-20 0 -4 22l76 106q5 8 9.5 13.5t13.5 5.5h35
q11 0 15 -5.5l10 -13.5z" />
    <glyph glyph-name="ntilde" unicode="&#xf1;" horiz-adv-x="500" 
d="M429 37q0 -20 -4 -29t-15 -9h-54q-22 0 -22 30v267q0 33 -17.5 58t-61.5 25q-24 0 -42 -9t-29 -23.5t-16.5 -31.5t-5.5 -32v-252q0 -17 -2.5 -24.5t-14.5 -7.5h-53q-14 0 -18.5 7t-4.5 24v394q0 13 3.5 19.5t16.5 6.5h54q11 0 15.5 -12t4.5 -41q21 29 53 46t81 17
q27 0 51 -7.5t42 -24.5t28.5 -44.5t10.5 -67.5v-279zM404 601q-18 -36 -42 -59.5t-57 -23.5q-15 0 -29.5 7t-28.5 16t-27 16t-25 7q-14 0 -27 -10t-20 -22q-4 -6 -6.5 -6.5t-6.5 1.5l-31 16q-8 3 -3 11q5 12 13.5 25.5t20.5 25.5t26 20t31 8q14 0 29.5 -7.5t30.5 -16.5
t29 -16.5t26 -7.5q17 0 29.5 11t19.5 24q4 9 12 5l33 -11q8 -4 3 -13z" />
    <glyph glyph-name="oacute" unicode="&#xf3;" horiz-adv-x="484" 
d="M441 222q0 -114 -52 -173.5t-146 -59.5q-49 0 -87 11t-64.5 38t-40 71.5t-13.5 111.5q0 65 15 110.5t42.5 74t66 41t85.5 12.5q46 0 82 -13t61 -41.5t38 -73.5t13 -109zM347 268q0 54 -23 90.5t-80 36.5q-46 0 -76 -31.5t-30 -100.5v-82q0 -68 31 -98t76 -30q48 0 75 38
t27 100v77zM254 512q-13 -15 -27 -15h-33q-19 0 -5 21l77 107l10.5 13.5t14.5 4.5h59q17 0 18 -6t-10 -17z" />
    <glyph glyph-name="ograve" unicode="&#xf2;" horiz-adv-x="484" 
d="M442 220q0 -113 -52.5 -172t-147.5 -59q-48 0 -86 11t-64.5 37.5t-40 71t-13.5 111.5q0 66 15 111.5t42 74t65.5 41t85.5 12.5t83.5 -13t61.5 -41.5t38 -74t13 -110.5zM346 266q0 57 -23 93.5t-80 36.5q-45 0 -75.5 -32t-30.5 -102v-81q0 -35 8.5 -59t23 -40t34 -23
t41.5 -7q48 0 75 38t27 101v75zM311 518q16 -22 -4 -22h-33q-8 0 -14.5 4.5t-11.5 10.5l-102 109q-12 12 -11.5 17.5t17.5 5.5h59q11 0 15 -4.5t10 -12.5z" />
    <glyph glyph-name="ocircumflex" unicode="&#xf4;" horiz-adv-x="484" 
d="M442 221q0 -113 -52.5 -172.5t-146.5 -59.5q-49 0 -87 11t-64.5 37.5t-40 71t-13.5 111.5q0 66 15 111.5t42.5 74t66 41.5t85.5 13q93 0 144 -55t51 -184zM346 267q0 57 -23 93t-80 36q-46 0 -76 -32t-30 -101v-82q0 -34 8.5 -58.5t23 -40t34 -22.5t41.5 -7q48 0 75 37.5
t27 100.5v76zM363 520q17 -22 -5 -22h-31q-8 0 -12 1t-10 9l-59 78l-59 -78q-7 -8 -11.5 -9t-10.5 -1h-32q-20 0 -4 22l76 106q5 8 9.5 13t13.5 5h34q11 0 15 -5l10 -13z" />
    <glyph glyph-name="otilde" unicode="&#xf5;" horiz-adv-x="484" 
d="M446 222q0 -114 -52.5 -173.5t-146.5 -59.5q-49 0 -87 11t-64.5 38t-40 71.5t-13.5 111.5q0 66 15 111.5t42.5 74t66 41t86.5 12.5q46 0 82 -13t61 -41.5t38 -74t13 -109.5zM351 268q0 55 -23 91.5t-80 36.5q-47 0 -77 -31.5t-30 -100.5v-82q0 -69 31.5 -99t76.5 -30
q48 0 75 38t27 101v76zM399 599q-18 -36 -42 -59.5t-57 -23.5q-14 0 -28.5 7t-28.5 16t-27 16t-25 7q-14 0 -27.5 -10t-20.5 -22q-5 -8 -13 -5l-30 16q-7 3 -4 11q5 12 14 25.5t20.5 25.5t26 20t30.5 8q15 0 30.5 -7.5t30.5 -16.5t29 -16.5t25 -7.5q17 0 29.5 11t19.5 24
q4 9 12 5l33 -11q8 -4 3 -13z" />
    <glyph glyph-name="uacute" unicode="&#xfa;" horiz-adv-x="502" 
d="M427 26q0 -12 -3.5 -19t-15.5 -7h-53q-11 0 -15.5 11.5t-4.5 40.5q-28 -32 -59 -46t-75 -14q-25 0 -49 7.5t-42.5 25t-30 44.5t-11.5 66v286q0 16 4 23t15 7h55q22 0 22 -30v-266q0 -35 17 -59t61 -24q24 0 41.5 9t29 23t17.5 31t6 32v252q0 17 2 24.5t14 7.5h52
q14 0 18.5 -7.5t4.5 -23.5v-394zM265 515q-5 -6 -12 -10.5t-15 -4.5h-32q-21 0 -5 22l77 107q6 9 10 13.5t15 4.5h59q17 0 17.5 -6t-10.5 -17z" />
    <glyph glyph-name="ugrave" unicode="&#xf9;" horiz-adv-x="500" 
d="M427 26q0 -12 -3 -19t-16 -7h-54q-11 0 -15.5 11.5t-4.5 40.5q-28 -32 -58.5 -46t-74.5 -14q-25 0 -49 7.5t-42.5 24.5t-30 44t-11.5 66v288q0 16 4 22.5t15 6.5h55q22 0 22 -30v-267q0 -34 17 -58t61 -24q23 0 40.5 9t29 23t17.5 30.5t6 32.5v252q0 17 2.5 24.5
t14.5 7.5h53q14 0 18 -7t4 -24v-394zM309 522q16 -22 -4 -22h-33q-8 0 -14.5 4.5t-11.5 10.5l-104 108q-11 12 -10.5 18t17.5 6h58q11 0 15.5 -4.5t11.5 -13.5z" />
    <glyph glyph-name="ucircumflex" unicode="&#xfb;" horiz-adv-x="501" 
d="M429 26q0 -13 -3 -19.5t-16 -6.5h-53q-11 0 -15.5 11.5t-4.5 40.5q-29 -32 -59.5 -46t-74.5 -14q-25 0 -49 7.5t-42.5 24.5t-30 44t-11.5 66v288q0 15 4 22t15 7h55q21 0 21 -30v-267q0 -33 17.5 -58t60.5 -25q24 0 41.5 9t29.5 23.5t18 31.5t6 32v252q0 17 2 24.5
t14 7.5h53q14 0 18 -7t4 -24v-394zM368 522q8 -10 7 -16t-12 -6h-30q-8 0 -12.5 1t-10.5 9l-59 79l-59 -79q-6 -8 -10.5 -9t-12.5 -1h-31q-11 0 -11.5 6t7.5 16l76 108q5 7 9.5 12t13.5 5h34q11 0 15 -5l10 -12z" />
    <glyph glyph-name="Acircumflex" unicode="&#xc2;" horiz-adv-x="595" 
d="M562 31q7 -23 0 -27t-20 -4h-73q-14 0 -16 5t-7 19l-40 131h-232l-39 -131q-4 -14 -8 -19t-15 -5h-67q-8 0 -10.5 5t3.5 26l190 621q5 17 11.5 23.5t22.5 6.5h76q17 0 23 -6.5t12 -23.5zM291 549l-91 -311h181zM430 748q18 -24 -6 -24h-34q-9 0 -13.5 1.5t-11.5 9.5
l-66 88l-66 -88q-7 -8 -12 -9.5t-12 -1.5h-36q-22 0 -4 24l85 119q5 8 10 14t16 6h37q12 0 17 -6t11 -14z" />
    <glyph glyph-name="Ecircumflex" unicode="&#xca;" horiz-adv-x="520" 
d="M472 17q0 -10 -6 -13.5t-14 -3.5h-354q-9 0 -15 6t-6 21v624q0 14 2.5 22.5t15.5 8.5h337q17 0 21 -2.5t4 -12.5v-55q0 -11 -11.5 -13t-31.5 -2h-207q-15 0 -19.5 -4.5t-4.5 -10.5v-161q0 -14 5 -17.5t16 -3.5h184q20 0 25 -4t3 -13l-6 -52q-2 -15 -16 -16.5t-28 -1.5
h-155q-26 0 -26 -21v-183q0 -16 7.5 -18t19.5 -2h226q18 0 26 -3.5t8 -14.5v-54zM401 748q18 -24 -5 -24h-35q-8 0 -13 1.5t-11 9.5l-66 88l-66 -88q-8 -8 -12.5 -9.5t-12.5 -1.5h-35q-23 0 -5 24l85 119l10.5 14t15.5 6h38q11 0 16 -6t11 -14z" />
    <glyph glyph-name="Aacute" unicode="&#xc1;" horiz-adv-x="595" 
d="M558 31q7 -23 0.5 -27t-19.5 -4h-74q-14 0 -16 5t-7 19l-40 131h-232l-39 -131q-5 -14 -8.5 -19t-14.5 -5h-67q-8 0 -10.5 5t3.5 26l190 621q5 16 11.5 23t23.5 7h75q17 0 23 -7t12 -23zM287 549l-91 -311h181zM326 741q-7 -8 -14 -12.5t-16 -4.5h-36q-20 0 -5 25l85 118
q7 11 11.5 15.5t16.5 4.5h65q20 0 20.5 -6t-11.5 -20z" />
    <glyph glyph-name="Edieresis" unicode="&#xcb;" horiz-adv-x="520" 
d="M470 17q0 -10 -6 -13.5t-14 -3.5h-355q-9 0 -15 6t-6 21v626q0 14 2.5 22.5t15.5 8.5h338q17 0 21 -2.5t4 -12.5v-55q0 -11 -11.5 -13t-31.5 -2h-208q-15 0 -19.5 -4.5t-4.5 -10.5v-162q0 -14 5 -17.5t16 -3.5h185q20 0 25 -4t3 -13l-6 -52q-2 -15 -16.5 -16.5
t-27.5 -1.5h-156q-26 0 -26 -21v-184q0 -16 7.5 -18.5t19.5 -2.5h226q19 0 27 -3t8 -14v-54zM417 780q0 -11 -3.5 -18t-17.5 -7h-54q-20 0 -24.5 7.5t-4.5 18.5v55q0 23 20 23h58q17 0 21.5 -5t4.5 -16v-58zM216 778q0 -11 -4.5 -17t-17.5 -6h-58q-16 0 -20.5 3.5t-4.5 14.5
v60q0 11 3.5 18.5t17.5 7.5h59q15 0 20 -7.5t5 -18.5v-55z" />
    <glyph glyph-name="Egrave" unicode="&#xc8;" horiz-adv-x="520" 
d="M463 17q0 -10 -6 -13.5t-13 -3.5h-355q-9 0 -15 6t-6 21v624q0 14 2.5 22.5t15.5 8.5h337q17 0 21 -2t4 -12v-56q0 -11 -11 -13t-31 -2h-208q-15 0 -19.5 -5t-4.5 -10v-161q0 -13 4.5 -17t15.5 -4h185q20 0 25 -4t3 -13l-6 -52q-2 -15 -16 -16.5t-28 -1.5h-155
q-15 0 -20.5 -4.5t-5.5 -16.5v-183q0 -17 7.5 -19t19.5 -2h226q18 0 26 -3t8 -14v-54zM337 748q18 -24 -5 -24h-36q-10 0 -17.5 5t-13.5 12l-115 120q-13 14 -12.5 20t19.5 6h65q12 0 17 -5t12 -15z" />
    <glyph glyph-name="Iacute" unicode="&#xcd;" horiz-adv-x="250" 
d="M185 21q0 -11 -3.5 -16t-16.5 -5h-72q-12 0 -16.5 5.5t-4.5 20.5v636q0 13 5 16.5t20 3.5h69q13 0 16 -5.5t3 -20.5v-635zM156 741q-7 -8 -14 -12.5t-16 -4.5h-36q-22 0 -6 24l86 119q7 10 11.5 15t16.5 5h65q20 0 20.5 -6t-12.5 -20z" />
    <glyph glyph-name="Icircumflex" unicode="&#xce;" horiz-adv-x="250" 
d="M182 21q0 -11 -3.5 -16t-16.5 -5h-72q-12 0 -16.5 5.5t-4.5 20.5v636q0 13 5 16.5t20 3.5h69q13 0 16 -5.5t3 -20.5v-635zM257 748q18 -24 -6 -24h-34q-8 0 -13 1.5t-11 9.5l-66 88l-67 -88q-7 -8 -11.5 -9.5t-12.5 -1.5h-35q-23 0 -5 24l85 119q5 8 10 14t16 6h37
q12 0 17 -6t11 -14z" />
    <glyph glyph-name="Igrave" unicode="&#xcc;" horiz-adv-x="250" 
d="M186 21q0 -11 -3.5 -16t-15.5 -5h-72q-13 0 -17.5 5.5t-4.5 20.5v636q0 13 5 16.5t21 3.5h69q12 0 15 -5.5t3 -20.5v-635zM177 748q17 -24 -5 -24h-36q-9 0 -16.5 4.5t-13.5 12.5l-115 120q-13 14 -12.5 20t19.5 6h65q12 0 17 -5t12 -15z" />
    <glyph glyph-name="Oacute" unicode="&#xd3;" horiz-adv-x="683" 
d="M594 211q0 -54 -13 -92t-34 -63t-48 -39t-54.5 -20.5t-54 -8t-46.5 -1.5q-35 0 -79 6t-83 26t-66 58.5t-27 104.5v275q0 125 62 179.5t190 54.5q52 0 98 -11t80.5 -37.5t54.5 -71t20 -111.5v-249zM482 453q0 77 -34.5 111.5t-101.5 34.5q-41 0 -69.5 -9.5t-45.5 -28.5
t-24.5 -47t-7.5 -65v-242q0 -36 13 -60.5t33.5 -39.5t46.5 -21.5t52 -6.5q28 0 53 5.5t44 21t30 44t11 74.5v229zM356 739q-6 -7 -13.5 -12t-16.5 -5h-36q-23 0 -6 24l86 119q7 10 11.5 15t16.5 5h65q20 0 20.5 -6t-12.5 -20z" />
    <glyph glyph-name="Ocircumflex" unicode="&#xd4;" horiz-adv-x="683" 
d="M596 215q0 -82 -28 -127.5t-67.5 -67t-82.5 -26t-73 -4.5q-35 0 -79 6t-83 26t-66 59t-27 105v274q0 125 62 179t191 54q51 0 97 -11t80.5 -37t55 -70.5t20.5 -111.5v-248zM482 456q0 76 -33.5 111t-101.5 35q-41 0 -69.5 -9.5t-45.5 -28.5t-24.5 -47t-7.5 -64v-243
q0 -36 13 -60.5t33.5 -39.5t46.5 -21.5t52 -6.5q28 0 53 5.5t44 21.5t29.5 44.5t10.5 74.5v228zM478 749q18 -24 -6 -24h-34q-8 0 -13 1.5t-11 9.5l-66 88l-66 -88q-7 -8 -12 -9.5t-12 -1.5h-36q-23 0 -5 24l86 119q5 8 10 14t16 6h36q12 0 17 -6t11 -14z" />
    <glyph glyph-name="Agrave" unicode="&#xc0;" horiz-adv-x="595" 
d="M563 31q7 -23 0.5 -27t-19.5 -4h-74q-14 0 -16 5t-7 19l-40 131h-231l-39 -131q-5 -14 -9 -19t-15 -5h-67q-8 0 -10.5 5t3.5 26l190 622q5 15 11.5 22t22.5 7h76q17 0 23 -7t12 -22zM291 549l-90 -312h181zM350 748q17 -24 -4 -24h-37q-9 0 -16 4.5t-14 11.5l-114 121
q-13 14 -12.5 20t19.5 6h65q12 0 16.5 -4.5t11.5 -15.5z" />
    <glyph glyph-name="Atilde" unicode="&#xc3;" horiz-adv-x="595" 
d="M565 31q3 -11 3 -17.5t-3 -9.5t-8 -3.5t-11 -0.5h-74q-14 0 -16 5t-7 19l-40 131h-232l-39 -131q-5 -14 -9 -19t-15 -5h-67q-8 0 -10.5 5t3.5 26l190 623q5 16 11.5 22.5t22.5 6.5h77q17 0 23 -6.5t12 -22.5zM293 550l-91 -312h182zM475 838q-21 -41 -47.5 -67t-64.5 -26
q-16 0 -32 8t-31.5 17.5t-30 17.5t-27.5 8q-15 0 -30 -10.5t-23 -24.5q-4 -6 -7 -7t-7 1l-35 18q-8 4 -3 12q6 13 15.5 29t22.5 29t29 22t34 9q16 0 33 -8.5t34 -18l32.5 -18t27.5 -8.5q20 0 33.5 12t21.5 26q4 10 13 6l38 -13q7 -2 4 -14z" />
    <glyph glyph-name="Otilde" unicode="&#xd5;" horiz-adv-x="683" 
d="M594 212q0 -54 -13 -92t-34 -63t-48 -39t-54.5 -20.5t-54 -8t-46.5 -1.5q-35 0 -79 6t-83 26t-66 58.5t-27 104.5v275q0 125 61.5 179t190.5 54q52 0 98 -11t80.5 -37.5t54.5 -70.5t20 -111v-249zM482 454q0 77 -34.5 111.5t-101.5 34.5q-41 0 -69.5 -9.5t-45.5 -28.5
t-24.5 -47t-7.5 -65v-242q0 -36 13 -60.5t33.5 -39.5t46.5 -21.5t52 -6.5q28 0 53 5.5t44 21t30 44t11 74.5v229zM513 836q-20 -41 -46.5 -67t-63.5 -26q-16 0 -32 8t-31.5 17.5t-30 17.5t-27.5 8q-16 0 -30.5 -11t-22.5 -25q-6 -10 -14 -5l-35 17q-7 4 -4 13
q6 13 15.5 28.5t22.5 28.5t29.5 22t34.5 9q16 0 33 -8.5t33.5 -18l32 -18t27.5 -8.5q20 0 33.5 12t21.5 26q4 10 13 6l38 -12q8 -4 3 -14z" />
    <glyph glyph-name="odieresis" unicode="&#xf6;" horiz-adv-x="484" 
d="M442 222q0 -112 -52.5 -171.5t-146.5 -59.5q-48 0 -86 11t-64.5 38t-40 71.5t-13.5 110.5q0 65 15 110.5t42 74t65.5 41t85.5 12.5q93 0 144 -54.5t51 -183.5zM346 268q0 56 -22.5 92t-79.5 36q-45 0 -75.5 -31.5t-30.5 -100.5v-82q0 -34 8.5 -58t23 -39.5t33.5 -22.5
t41 -7q48 0 75 38t27 99v76zM382 545q0 -10 -3.5 -16.5t-15.5 -6.5h-48q-18 0 -22.5 6.5t-4.5 17.5v49q0 21 18 21h52q16 0 20 -4t4 -15v-52zM202 543q0 -9 -3.5 -15t-14.5 -6h-52q-14 0 -18.5 3.5t-4.5 13.5v54q0 10 3 16.5t16 6.5h53q13 0 17 -6.5t4 -16.5v-50z" />
    <glyph glyph-name="Adieresis" unicode="&#xc4;" horiz-adv-x="595" 
d="M564 30q3 -11 3 -17.5t-3 -9.5t-8 -3.5t-11 -0.5h-74q-14 0 -16.5 5t-7.5 19l-40 132h-232l-40 -132q-5 -14 -9 -19t-15 -5h-67q-8 0 -10.5 5t3.5 26l191 625q5 16 11.5 22.5t22.5 6.5h77q17 0 23 -6.5t12 -22.5zM291 551l-91 -313h182zM448 781q0 -11 -3.5 -18.5
t-16.5 -7.5h-54q-20 0 -25 8t-5 19v55q0 23 20 23h58q17 0 21.5 -5t4.5 -16v-58zM248 779q0 -11 -4.5 -17.5t-17.5 -6.5h-59q-16 0 -20.5 4t-4.5 15v60q0 11 3.5 18.5t17.5 7.5h60q15 0 20 -7.5t5 -18.5v-55z" />
    <glyph glyph-name="Odieresis" unicode="&#xd6;" horiz-adv-x="683" 
d="M593 213q0 -54 -13 -92t-34 -63t-48 -39t-54.5 -20.5t-54 -8t-46.5 -1.5q-35 0 -79 6t-83 26t-66 58.5t-27 104.5v275q0 125 61.5 179t190.5 54q52 0 98 -11t80.5 -37.5t54.5 -70.5t20 -111v-249zM480 455q0 76 -34 111t-101 35q-41 0 -69.5 -9.5t-45.5 -28.5t-24.5 -47
t-7.5 -65v-242q0 -36 13 -60.5t33.5 -39.5t46.5 -21.5t52 -6.5q28 0 53 5.5t43.5 21t29.5 44t11 74.5v229zM493 777q0 -11 -3 -18t-17 -7h-54q-20 0 -25 7.5t-5 18.5v55q0 23 21 23h57q18 0 22 -5t4 -16v-58zM293 775q0 -11 -4 -17t-17 -6h-58q-16 0 -20.5 3.5t-4.5 14.5v60
q0 11 3.5 18.5t17.5 7.5h59q15 0 19.5 -7.5t4.5 -18.5v-55z" />
    <glyph glyph-name="Udieresis" unicode="&#xdc;" horiz-adv-x="648" 
d="M566 211q0 -74 -23.5 -118t-59 -67.5t-78 -31t-80.5 -7.5q-40 0 -82 9.5t-76.5 33.5t-56.5 64t-22 101v464q0 14 3 18.5t12 5.5h71q12 0 18 -6t6 -25v-421q0 -72 35 -111.5t92 -39.5q39 0 64 10.5t39.5 30.5t20 48.5t5.5 63.5v426q0 14 3.5 18.5t12.5 5.5h73
q12 0 17.5 -6t5.5 -25v-441zM481 779q0 -11 -3.5 -18.5t-17.5 -7.5h-54q-20 0 -25 7.5t-5 18.5v56q0 23 21 23h58q17 0 21.5 -5t4.5 -16v-58zM280 777q0 -11 -4.5 -17.5t-16.5 -6.5h-58q-17 0 -21.5 4t-4.5 15v60q0 11 3.5 18.5t17.5 7.5h60q14 0 19 -7.5t5 -18.5v-55z" />
    <glyph glyph-name="adieresis" unicode="&#xe4;" horiz-adv-x="476" 
d="M424 33q0 -17 -3.5 -25t-17.5 -8h-52q-10 0 -15.5 4t-5.5 21v35q-12 -27 -49 -48t-86 -21q-31 0 -58 13t-47.5 41t-32.5 72t-12 106q0 111 38 175t111 64q54 0 86 -18.5t50 -50.5v37q0 21 15 21h54q18 0 21.5 -6t3.5 -19v-393zM324 292q0 14 -5 32.5t-16 35t-28.5 28
t-42.5 11.5q-43 0 -65.5 -32t-22.5 -107v-71q0 -61 22.5 -97.5t67.5 -36.5q21 0 37.5 10t28.5 23.5t18 28t6 23.5v152zM382 547q0 -9 -3.5 -15.5t-15.5 -6.5h-49q-17 0 -21.5 6.5t-4.5 16.5v50q0 21 18 21h52q16 0 20 -4t4 -15v-53zM202 546q0 -10 -4 -15.5t-15 -5.5h-52
q-15 0 -19 3t-4 14v53q0 11 3 17.5t15 6.5h54q14 0 18 -6.5t4 -17.5v-49z" />
    <glyph glyph-name="edieresis" unicode="&#xeb;" horiz-adv-x="459" 
d="M416 234q0 -19 -5.5 -27.5t-28.5 -8.5h-247q0 -72 33.5 -104t92.5 -32q51 0 81.5 7.5t41.5 11.5q11 5 17 2t6 -10v-41q0 -11 -5.5 -15.5t-21.5 -9.5q-5 -2 -17.5 -4t-30 -4.5t-37.5 -4t-38 -1.5q-107 0 -161.5 52t-54.5 176q0 121 48.5 180t143.5 59q88 0 135.5 -45
t47.5 -129v-52zM326 277q-2 60 -22.5 92t-71.5 32q-25 0 -42.5 -10t-29 -27t-17 -39t-5.5 -47q0 -9 1 -13t10 -4h168q6 0 7.5 4t1.5 12zM372 546q0 -10 -3.5 -16.5t-14.5 -6.5h-48q-17 0 -22 6.5t-5 17.5v48q0 21 19 21h52q14 0 18 -4t4 -15v-51zM194 544q0 -10 -4 -15.5
t-15 -5.5h-52q-14 0 -18 3t-4 14v52q0 11 3 17.5t15 6.5h53q14 0 18 -6.5t4 -17.5v-48z" />
    <glyph glyph-name="idieresis" unicode="&#xef;" horiz-adv-x="218" 
d="M156 29q0 -17 -2.5 -23t-13.5 -6h-60q-11 0 -14 6t-3 23v396q0 13 3.5 19t16.5 6h53q15 0 17.5 -5.5t2.5 -19.5v-396zM245 547q0 -10 -3 -16.5t-15 -6.5h-48q-18 0 -22.5 6.5t-4.5 17.5v49q0 21 18 21h52q16 0 19.5 -4t3.5 -15v-52zM65 545q0 -9 -4 -15t-15 -6h-52
q-14 0 -18 3.5t-4 13.5v53q0 11 3 17.5t15 6.5h54q13 0 17 -6.5t4 -17.5v-49z" />
    <glyph glyph-name="ydieresis" unicode="&#xff;" horiz-adv-x="448" 
d="M210 -148q-5 -12 -11 -16.5t-17 -4.5h-45q-19 0 -12 19l54 149l-156 432q-5 11 0.5 15t16.5 4h59q9 0 14 -6t8 -15l108 -307l110 307q3 7 8.5 14t12.5 7h51q14 0 16 -4.5t-3 -17.5zM365 548q0 -10 -3.5 -16.5t-15.5 -6.5h-48q-17 0 -22 6.5t-5 17.5v49q0 21 19 21h52
q15 0 19 -4t4 -15v-52zM185 546q0 -10 -4 -15.5t-16 -5.5h-52q-14 0 -18.5 3.5t-4.5 13.5v53q0 10 3 17t16 7h54q14 0 18 -7t4 -17v-49z" />
    <glyph glyph-name="Ydieresis" unicode="&#x178;" horiz-adv-x="470" 
d="M458 565l-87 -162l-32.5 -59.5l-28 -52t-19.5 -36.5l-7 -14v-224q0 -17 -19 -17h-63q-9 0 -12 3.5t-3 12.5v225l-179 328q-6 11 -2 13.5t14 2.5h69q8 0 12.5 -3t10.5 -13l132 -246q9 19 20 39l20.5 39l24.5 45l65 123q5 9 8.5 12.5t15.5 3.5h50q12 0 15 -3.5t-5 -16.5z
M375 667q0 -9 -3.5 -15.5t-14.5 -6.5h-46q-17 0 -21.5 6.5t-4.5 16.5v47q0 20 18 20h49q15 0 19 -4t4 -14v-50zM203 665q0 -9 -4 -14.5t-15 -5.5h-49q-14 0 -18 3.5t-4 12.5v52q0 9 3 15.5t15 6.5h51q13 0 17 -6.5t4 -15.5v-48z" />
    <glyph glyph-name="Euro" unicode="&#x20ac;" horiz-adv-x="449" 
d="M22 313q-22 0 -22 17v30q0 14 5 16.5t19 2.5h16v19q0 59 15.5 97t43.5 60.5t65.5 31.5t82.5 9q36 0 61 -3.5t42 -8.5t27 -11t16 -10q3 -3 0 -14t-8 -23t-10.5 -21t-8.5 -8q-14 5 -24.5 9.5t-23.5 7.5t-29.5 5t-40.5 2q-36 0 -57.5 -8t-33.5 -24.5t-16 -42t-4 -60.5v-7
h116q16 0 23.5 -2t7.5 -13v-31q0 -13 -5.5 -16.5t-24.5 -3.5h-117v-50h116q16 0 23.5 -2t7.5 -14v-31q0 -13 -5.5 -16.5t-24.5 -3.5h-117v-27q0 -56 30 -80.5t81 -24.5q48 0 78 12t44 17q4 1 8.5 -9t7.5 -23.5t4.5 -25.5t-1.5 -14q-17 -11 -57 -20.5t-91 -9.5q-33 0 -68.5 7
t-65 26.5t-48.5 54t-19 90.5v27h-18q-22 0 -22 17v30q0 15 5 17.5t19 2.5h16v50h-18z" />
    <glyph glyph-name="yen" unicode="&#xa5;" horiz-adv-x="584" 
d="M344 257v-63h69q17 0 25 -2t8 -14v-34q0 -14 -6 -17.5t-26 -3.5h-70v-104q0 -11 -4 -15t-15 -4h-67q-11 0 -13.5 3.5t-2.5 13.5v106h-75q-14 0 -19 3.5t-5 14.5v32q0 16 5.5 18.5t19.5 2.5h74v64l-180 350q-7 11 -2.5 14t14.5 3h75q9 0 13.5 -3.5t10.5 -14.5l130 -265
q9 20 20 42l20.5 42.5l24.5 48.5l65 133q5 9 8.5 13t17.5 4h49q14 0 16.5 -4t-5.5 -18z" />
    <glyph glyph-name="udieresis" unicode="&#xfc;" horiz-adv-x="526" 
d="M442 26q0 -12 -3.5 -19t-15.5 -7h-54q-11 0 -15.5 11.5t-4.5 40.5q-28 -32 -59 -46t-76 -14q-25 0 -48.5 7.5t-42 24.5t-30 44t-11.5 66v288q0 16 4 23t15 7h55q21 0 21 -31v-267q0 -34 17 -58t61 -24q24 0 42 9t29.5 23t17.5 31t6 32v253q0 17 2.5 24.5t14.5 7.5h52
q14 0 18.5 -7.5t4.5 -23.5v-395zM400 550q0 -10 -3 -17t-15 -7h-49q-17 0 -22 7t-5 18v49q0 21 19 21h52q16 0 19.5 -4t3.5 -15v-52zM219 548q0 -10 -4 -16t-15 -6h-52q-14 0 -18.5 3.5t-4.5 14.5v53q0 11 3 17.5t16 6.5h53q14 0 18 -6.5t4 -17.5v-49z" />
    <glyph glyph-name="ccedilla" unicode="&#xe7;" horiz-adv-x="417" 
d="M383 82q-20 -37 -54.5 -59t-85.5 -25v-24q30 0 49 -15.5t19 -47.5q0 -34 -27 -51t-67 -17q-25 0 -40 6t-29 22q-3 4 -0.5 9.5t7 10.5t10 7.5t7.5 0.5q5 -8 16 -13t25 -5q20 0 33.5 6.5t13.5 23.5q0 18 -11 24t-30 6h-14q-5 -1 -6.5 -1t-1.5 4v55q-39 3 -69.5 16.5
t-51.5 39.5t-32 66.5t-11 98.5q0 63 14.5 107t41 71t63.5 39.5t83 12.5q51 0 87 -14t60 -46q4 -6 -4.5 -16t-21 -18.5t-24.5 -13t-15 0.5q-12 20 -31.5 32.5t-51.5 12.5q-45 0 -74 -30.5t-29 -96.5v-79q0 -65 30 -93.5t73 -28.5q27 0 47.5 14.5t34.5 36.5q3 6 14.5 4
t24 -7.5t21.5 -13t7 -12.5z" />
    <glyph glyph-name="OE" unicode="&#x152;" horiz-adv-x="749" 
d="M721 12q0 -8 -5 -11t-11 -3h-304q-11 0 -13.5 9t-2.5 21q-11 -12 -26 -19.5t-32 -12.5t-33 -7t-28 -2q-30 0 -67.5 5t-71.5 22.5t-57 50.5t-23 90v236q0 108 53.5 154.5t163.5 46.5q34 0 66.5 -8.5t52.5 -23.5q0 23 14 23h290q14 0 18 -2t4 -10v-48q0 -9 -10 -10.5
t-27 -1.5h-178q-13 0 -17 -4t-4 -9v-139q0 -11 4 -14.5t14 -3.5h158q17 0 21.5 -3t2.5 -11l-5 -45q-2 -13 -14.5 -14t-23.5 -1h-133q-22 0 -22 -19v-157q0 -14 6.5 -15.5t16.5 -1.5h194q16 0 22.5 -3t6.5 -12v-47zM382 423q-7 48 -36 69.5t-78 21.5q-71 0 -99 -33t-28 -96
v-209q0 -30 11 -51t29 -34t40.5 -18.5t44.5 -5.5q21 0 40.5 3.5t35 13t26 27t14.5 45.5v267z" />
    <glyph glyph-name="oe" unicode="&#x153;" horiz-adv-x="701" 
d="M658 225q0 -18 -5.5 -26.5t-27.5 -8.5h-238q0 -70 32 -101t89 -31q50 0 78.5 7t39.5 11t17 1.5t6 -8.5v-40q0 -11 -5.5 -15t-21.5 -9q-4 -2 -16.5 -4l-29 -4.5t-35.5 -4t-37 -1.5q-74 0 -121 25q-1 -16 -18 -16h-43q-9 0 -14 3.5t-5 19.5v34q-12 -26 -47.5 -46t-81.5 -20
q-30 0 -56 12t-45.5 39t-31 69t-11.5 102q0 106 36.5 167t105.5 61q52 0 83 -17.5t48 -48.5v35q0 20 15 20h43q12 0 16.5 -2.5t5.5 -8.5q40 22 99 22q84 0 130 -41.5t46 -126.5v-48zM570 262q-1 60 -20.5 91t-69.5 31q-24 0 -41 -9.5t-28 -26t-16 -38.5t-5 -47q0 -8 1 -12
t9 -4h162q6 0 7 3.5t1 11.5zM297 279q0 13 -5 30.5t-15.5 33.5t-27 27t-40.5 11q-42 0 -63 -31t-21 -102v-67q0 -60 21.5 -94.5t63.5 -34.5q21 0 37 9.5t27 22.5t17 26.5t6 22.5v146z" />
    <glyph glyph-name="Idieresis" unicode="&#xcf;" horiz-adv-x="250" 
d="M182 18q0 -12 -3.5 -17t-16.5 -5h-73q-13 0 -17.5 5.5t-4.5 20.5v640q0 14 5 17.5t21 3.5h70q13 0 16 -5.5t3 -20.5v-639zM276 780q0 -11 -3.5 -18.5t-17.5 -7.5h-54q-20 0 -25 7.5t-5 18.5v56q0 23 21 23h58q17 0 21.5 -5t4.5 -16v-58zM74 778q0 -11 -4.5 -17.5
t-17.5 -6.5h-58q-16 0 -20.5 4t-4.5 15v60q0 11 3.5 18.5t17.5 7.5h59q15 0 20 -7.5t5 -18.5v-55z" />
    <glyph glyph-name="Ograve" unicode="&#xd2;" horiz-adv-x="683" 
d="M590 214q0 -54 -12.5 -91.5t-33.5 -62t-47.5 -38t-53.5 -20t-53 -8t-46 -1.5q-34 0 -77.5 5.5t-82 25.5t-65 58t-26.5 103v270q0 123 61 176.5t187 53.5q51 0 96.5 -10.5t79 -37t53.5 -70t20 -109.5v-244zM479 452q0 75 -33.5 109t-99.5 34q-81 0 -113 -37.5t-32 -109.5
v-239q0 -35 13 -59t33 -38.5t45.5 -21t51.5 -6.5q28 0 52.5 5.5t43 20.5t29 43t10.5 73v226zM415 740q17 -24 -4 -24h-36q-9 0 -16 4.5t-13 12.5l-114 118q-12 13 -11.5 19t18.5 6h65q11 0 16 -4.5t12 -14.5z" />
    <glyph glyph-name="Uacute" unicode="&#xda;" horiz-adv-x="648" 
d="M566 213q0 -73 -23.5 -117t-59 -67.5t-78 -31t-79.5 -7.5q-40 0 -82 9.5t-76.5 33.5t-56.5 64t-22 100v462q0 14 3.5 18.5t12.5 5.5h71q12 0 18 -6t6 -24v-420q0 -72 34.5 -111t91.5 -39q39 0 63.5 10.5t39 30t20 48t5.5 63.5v424q0 14 3.5 18.5t12.5 5.5h73
q12 0 17.5 -6t5.5 -24v-440zM336 742q-6 -7 -13.5 -12t-16.5 -5h-36q-22 0 -6 25l86 118q7 10 11.5 15t16.5 5h65q20 0 20.5 -6t-12.5 -20z" />
    <glyph glyph-name="Ucircumflex" unicode="&#xdb;" horiz-adv-x="648" 
d="M564 212q0 -73 -23.5 -116.5t-58.5 -67t-77.5 -31t-79.5 -7.5q-39 0 -80.5 9.5t-76 33t-56.5 63.5t-22 100v460q0 23 16 24h70q12 0 17.5 -6.5t5.5 -24.5v-417q0 -72 35 -110.5t91 -38.5q39 0 63.5 10.5t39 30t20 47.5t5.5 63v422q0 23 16 24h72q12 0 17.5 -6.5
t5.5 -24.5v-437zM456 746q8 -11 7.5 -18t-13.5 -7h-34q-8 0 -13 1.5t-11 10.5l-66 87l-66 -87q-7 -9 -11.5 -10.5t-12.5 -1.5h-35q-12 0 -12.5 7t7.5 18l85 118q5 8 10 14t16 6h37q11 0 16 -6t11 -14z" />
    <glyph glyph-name="Ugrave" unicode="&#xd9;" horiz-adv-x="648" 
d="M565 213q0 -73 -23.5 -117t-59 -67.5t-77.5 -31t-80 -7.5q-39 0 -81 9.5t-76.5 33.5t-56.5 64t-22 100v462q0 23 16 24h71q12 0 17.5 -6.5t5.5 -24.5v-420q0 -72 34.5 -110.5t91.5 -38.5q39 0 64 10.5t39.5 30t20 47.5t5.5 63v425q0 13 3 18t12 6h72q12 0 18 -6.5
t6 -24.5v-439zM409 748q17 -23 -5 -23h-36q-9 0 -16.5 4.5t-13.5 11.5l-115 120q-12 14 -11.5 20t19.5 6h64q12 0 17 -5t12 -15z" />
    <glyph glyph-name="cent" unicode="&#xa2;" horiz-adv-x="417" 
d="M234 -8q-46 3 -82 21.5t-60.5 49t-37.5 72t-13 90.5q0 48 13 89.5t37.5 72t60.5 49.5t82 22v100h41v-100q33 -2 64 -7t54 -14v-70q-25 4 -57.5 7t-60.5 4v-306q28 1 60.5 3.5t57.5 7.5v-66q-20 -9 -52 -16t-66 -9v-100h-41v100zM132 225q0 -62 24 -102t78 -49v301
q-54 -9 -78 -48.5t-24 -101.5z" />
    <glyph glyph-name="Zcaron" unicode="&#x17d;" horiz-adv-x="440" 
d="M427 15q0 -8 -4 -11.5t-18 -3.5h-377q-13 0 -13 10v24q0 7 4.5 15.5l9.5 17.5l266 444h-241q-17 0 -24.5 4t-5.5 15l2 41q1 8 3.5 11.5t16.5 3.5h357q7 0 12.5 -2.5t5.5 -7.5v-24q0 -6 -7 -18.5t-10 -18.5l-263 -440h257q17 0 23 -2t6 -11v-47zM272 639q-5 -7 -9 -12
t-13 -5h-32q-11 0 -15 5t-9 12l-73 102q-15 21 5 21h30q7 0 10.5 -1t9.5 -9l57 -75l57 75q5 8 10 9t11 1h30q20 0 4 -21z" />
    <glyph glyph-name="zcaron" unicode="&#x17e;" horiz-adv-x="349" 
d="M339 17q0 -11 -4 -14t-16 -3h-280q-14 0 -21.5 3t-9 8t1 12t7.5 15l196 331h-177q-12 0 -15.5 2t-3.5 15v28q0 11 4.5 13.5t12.5 2.5h273q22 0 27.5 -5.5t-4.5 -22.5l-204 -341h192q11 0 16 -2t5 -16v-26zM225 494q-5 -7 -9 -12t-13 -5h-32q-11 0 -15 5t-9 12l-73 103
q-17 20 5 20h29q8 0 11.5 -0.5t9.5 -8.5l57 -75l57 75q5 7 9.5 8t10.5 1h31q19 0 4 -20z" />
    <glyph glyph-name="Scaron" unicode="&#x160;" horiz-adv-x="478" 
d="M437 160q0 -49 -19.5 -81.5t-51 -51.5t-71.5 -27t-80 -8q-71 0 -113 11t-57 22q-3 3 -3 15.5t2 27t6 25.5t9 10q8 -3 20 -8t29.5 -10t40.5 -8.5t53 -3.5q28 0 52 4t42 14t28 26t10 39q0 19 -5.5 34t-19 28t-35 25t-53.5 25t-61 28t-51 35.5t-35.5 48.5t-13.5 67
q0 31 12.5 58.5t38 48t64 32.5t90.5 12q37 0 61 -2t39.5 -5t24.5 -6l15 -5t6.5 -14.5t-3 -26.5t-10 -25t-12.5 -9q-17 5 -49 11.5t-64 6.5q-65 0 -89.5 -21t-24.5 -55q0 -36 26.5 -57.5t84.5 -43.5q81 -32 124 -76t43 -110zM289 642q-5 -7 -9 -12t-13 -5h-32q-11 0 -15 5
t-9 12l-73 102q-15 21 5 21h30q7 0 10.5 -0.5t9.5 -8.5l57 -76l57 76q5 7 10 8t11 1h30q20 0 4 -21z" />
    <glyph glyph-name="scaron" unicode="&#x161;" horiz-adv-x="395" 
d="M346 114q0 -37 -14 -60t-36 -36t-49.5 -18t-54.5 -5q-59 0 -92.5 9.5t-45.5 15.5q-3 1 -4 12t0.5 22.5t5.5 20t10 6.5l35.5 -12t70.5 -8q39 0 60.5 12.5t21.5 43.5q0 25 -20.5 45.5t-60.5 41.5l-44 24t-36.5 27t-25 34t-9.5 43q0 29 13 50.5t34.5 35.5t50 21t58.5 7
q45 0 72.5 -5t35.5 -9q3 -2 2 -11.5t-4 -20.5t-8 -19.5t-10 -7.5q-10 3 -35 8t-48 5q-35 0 -53.5 -13t-18.5 -39q0 -19 22.5 -35t53.5 -33q28 -15 51 -30t39 -33t24.5 -39.5t8.5 -49.5zM235 498q-5 -7 -9 -12t-13 -5h-32q-11 0 -15 5t-9 12l-73 102q-16 21 5 21h29
q8 0 11.5 -0.5t9.5 -8.5l57 -76l57 76q5 7 10 8t11 1h30q20 0 4 -21z" />
    <glyph glyph-name="Yacute" unicode="&#xdd;" horiz-adv-x="584" 
d="M554 658l-102 -189l-37.5 -70l-32.5 -60.5l-22.5 -42.5l-8.5 -16v-260q0 -20 -22 -20h-73q-11 0 -14.5 4t-3.5 15v262l-208 383q-8 13 -3 16t16 3h81q10 0 14.5 -4t11.5 -16l154 -286l76 144l77 143q6 10 9.5 14.5t17.5 4.5h58q14 0 17.5 -4.5t-5.5 -20.5zM345 741
q-6 -7 -13.5 -12t-16.5 -5h-36q-23 0 -5 25l85 119q7 10 11.5 15t16.5 5h66q20 0 20.5 -6t-12.5 -20z" />
    <glyph glyph-name="yacute" unicode="&#xfd;" horiz-adv-x="448" 
d="M210 -147q-5 -13 -11 -17.5t-17 -4.5h-44q-22 0 -13 20l53 149l-156 435q-5 11 0.5 15t17.5 4h58q10 0 15 -6t7 -14l109 -311l111 311q3 7 8.5 13.5t12.5 6.5h51q14 0 16 -4t-3 -18zM258 519q-5 -6 -12 -10.5t-15 -4.5h-32q-22 0 -5 21l76 107q7 10 11 14.5t15 4.5h59
q17 0 17.5 -6t-10.5 -19z" />
    <glyph glyph-name="uni0E28" unicode="&#xe28;" horiz-adv-x="565" 
d="M561 463q8 -7 3.5 -11t-7.5 -6q-17 -14 -36.5 -21t-41.5 -11q-4 0 -2 -3q20 -34 20 -72v-326q0 -13 -13 -13h-53q-12 0 -12 13v311q0 27 -11.5 49t-31 38t-46 24.5t-56.5 8.5q-41 0 -80.5 -12t-58.5 -35q-3 -4 -6 -9t-3 -17v-88q0 -11 1.5 -10t3.5 2q11 11 26.5 14
t25.5 3h73q13 0 15 -13l7 -38q2 -12 -11 -12h-89q-17 0 -27.5 -6t-16 -14.5t-7 -18.5t-1.5 -18v-159q0 -13 -13 -13h-53q-13 0 -13 13v371q0 8 2.5 15t4.5 11q13 26 36.5 45t53 31.5t63 18.5t67.5 6q39 0 75 -10t66 -28q3 -2 9.5 -4.5t15.5 -0.5q13 3 25.5 8.5t21.5 10.5
q10 6 20 14q2 2 6.5 3.5t11.5 -4.5l16.5 -16.5t19.5 -20.5z" />
    <glyph glyph-name="uni0E1B" unicode="&#xe1b;" horiz-adv-x="553" 
d="M257 -8q-48 0 -95 13t-86 33q-5 2 -8.5 7.5t-3.5 10.5v434q0 13 13 13h53q13 0 13 -13v-380q0 -4 1 -8.5t6 -7.5q9 -5 41.5 -14.5t81.5 -9.5q18 0 41.5 4t44 15.5t35 33t14.5 56.5v461q0 8 3.5 10.5t8.5 2.5h53q13 0 13 -13v-476q0 -29 -11.5 -59.5t-38.5 -55.5t-71 -41
t-108 -16z" />
    <glyph glyph-name="uni0E16" unicode="&#xe16;" horiz-adv-x="534" 
d="M478 13q0 -13 -13 -13h-53q-5 0 -9 2.5t-4 10.5v311q0 35 -14 56.5t-35 33t-44.5 15.5t-41.5 4q-48 0 -80.5 -9.5t-41.5 -14.5q-5 -3 -6.5 -7.5t-1.5 -8.5v-302q0 -13 13 -13h34q13 0 11 -12l-8 -53q-2 -13 -15 -13h-101q-12 0 -12 13v434q0 13 12 18q39 20 85.5 32
t95.5 14q64 0 108 -16t71 -41t38.5 -55.5t11.5 -59.5v-326z" />
    </font>
</defs>
</svg>
